<?xml version="1.0" standalone="no"?>
<!DOCTYPE svg PUBLIC "-//W3C//DTD SVG 1.1//EN" "http://www.w3.org/Graphics/SVG/1.1/DTD/svg11.dtd" >
<svg xmlns="http://www.w3.org/2000/svg">
<metadata>
This is a custom SVG webfont generated by Font Squirrel.
Copyright   : Copyright  2009 ParaType Ltd All rights reserved
Designer    : AKorolkova OUmpeleva VYefimov
Foundry     : ParaType Ltd
Foundry URL : httpwwwparatypecom
</metadata>
<defs>
<font id="webfontnHhDPJvF" horiz-adv-x="1116" >
<font-face units-per-em="2048" ascent="1536" descent="-512" />
<missing-glyph horiz-adv-x="518" />
<glyph unicode=" "  horiz-adv-x="518" />
<glyph unicode="&#x09;" horiz-adv-x="518" />
<glyph unicode="&#xa0;" horiz-adv-x="518" />
<glyph unicode="!" horiz-adv-x="579" d="M152 135q0 72 45 114t118 42q76 0 121 -42t45 -114t-45 -115t-121 -43q-74 0 -118.5 43t-44.5 115zM283 426l18 334l143 674h263l-144 -674l-121 -334h-159z" />
<glyph unicode="&#x22;" horiz-adv-x="724" d="M143 991l95 443h221l-162 -443h-154zM430 991l95 443h221l-162 -443h-154z" />
<glyph unicode="#" d="M98 420l45 198h154l51 218h-147l45 198h149l72 295h219l-72 -295h183l71 295h219l-71 -295h147l-51 -198h-143l-51 -218h141l-49 -198h-140l-73 -316h-219l73 316h-182l-74 -316h-219l74 316h-152zM516 618h182l52 218h-183z" />
<glyph unicode="$" d="M121 88l96 199q29 -20 87 -47t136 -41l97 452q-47 31 -92.5 67t-81 82t-57 104.5t-21.5 135.5q0 98 33.5 172t92 125.5t134.5 80t162 38.5l41 182h202l-39 -184q78 -10 137.5 -29.5t102.5 -42.5l-102 -208q-29 16 -78 32.5t-109 26.5l-88 -416q47 -33 94 -69.5t84 -85 t59.5 -108.5t22.5 -138q0 -98 -32.5 -175t-91 -132.5t-139.5 -88t-177 -43.5l-37 -182h-203l39 185q-106 14 -171.5 46.5t-100.5 61.5zM551 1073q0 -59 33.5 -101t87.5 -83l73 352q-98 -4 -146 -51t-48 -117zM557 193q109 8 160 63t51 129q0 66 -37 111t-92 86z" />
<glyph unicode="%" horiz-adv-x="1646" d="M113 1022q0 111 38 192.5t99.5 136t136 81t148.5 26.5q135 0 205.5 -62.5t70.5 -183.5q0 -117 -34.5 -201.5t-94 -140t-136.5 -82t-159 -26.5q-127 0 -200.5 70.5t-73.5 189.5zM338 1034q-2 -45 20.5 -72.5t65.5 -27.5q68 0 115 70.5t47 181.5q0 100 -88 100 q-35 0 -63.5 -20.5t-51 -54t-35 -80t-10.5 -97.5zM860 262q0 111 38 192.5t99.5 136t136 81t148.5 26.5q135 0 205.5 -62.5t70.5 -183.5q0 -117 -34.5 -201.5t-94 -140t-136.5 -82t-159 -26.5q-127 0 -200.5 70.5t-73.5 189.5zM1085 274q-2 -45 20.5 -72.5t65.5 -27.5 q68 0 115 70.5t47 181.5q0 100 -88 100q-35 0 -63.5 -20.5t-51 -54t-35 -80t-10.5 -97.5zM1343 1462l150 -135l-1180 -1356l-149 142z" />
<glyph unicode="&#x26;" horiz-adv-x="1603" d="M150 332q0 94 37.5 178t100 153.5t141.5 126t163 97.5q-35 68 -44 123t-9 110q0 68 22.5 129.5t71.5 108.5t125 75.5t180 28.5q82 0 134 -20.5t83 -54t42 -75.5t11 -83q0 -104 -83 -199.5t-236 -179.5q45 -111 93 -203t114 -182q53 51 106 128t98 157l162 -103 q-20 -37 -51 -81l-64 -89q-34 -45 -68 -85l-60 -68q49 -59 107 -111.5t116 -77.5l-178 -196q-31 12 -64 35.5t-64.5 51t-60 58.5t-49.5 59q-88 -68 -203.5 -120t-269.5 -52q-94 0 -169 28t-127 76t-79.5 113.5t-27.5 143.5zM416 381q0 -86 55 -135t164 -49q78 0 152.5 33.5 t119.5 74.5q-76 109 -135 216.5t-98 203.5q-121 -82 -189.5 -165t-68.5 -179zM786 1133q0 -45 7.5 -77t29.5 -81q86 51 133.5 100t47.5 105q0 39 -18.5 61.5t-70.5 22.5q-63 0 -96 -39t-33 -92z" />
<glyph unicode="'" horiz-adv-x="446" d="M186 991l95 443h221l-162 -443h-154z" />
<glyph unicode="(" horiz-adv-x="634" d="M127 178q0 197 47 382t126 350t183.5 304.5t218.5 243.5l132 -110q-96 -106 -179.5 -238.5t-144.5 -282t-97 -310.5t-36 -324q0 -129 18.5 -255t83.5 -274l-157 -110q-59 78 -96.5 158.5t-60 160.5t-30.5 156.5t-8 148.5z" />
<glyph unicode=")" horiz-adv-x="634" d="M-158 -338q92 102 176 236.5t146.5 286t99.5 311t37 313.5q0 170 -24.5 300t-79.5 232l178 115q92 -123 134 -277.5t42 -340.5q0 -197 -46 -383.5t-125 -352t-182.5 -307t-217.5 -246.5z" />
<glyph unicode="*" horiz-adv-x="729" d="M160 1112v152h121l120 -35l-102 90l-57 102l131 76l57 -94l31 -121l31 113l57 100l129 -72l-62 -106l-96 -88l131 33h117v-150h-111l-125 33l103 -96l51 -86l-131 -76l-55 94l-41 131l-27 -119l-59 -100l-133 76l61 100l92 76l-112 -33h-121z" />
<glyph unicode="+" horiz-adv-x="1034" d="M119 578v229h332v346h239v-346h334v-229h-334v-351h-239v351h-332z" />
<glyph unicode="," horiz-adv-x="442" d="M-53 -193q59 23 108 74t68 109q-35 2 -65.5 34.5t-30.5 86.5q0 82 52 127t124 45t107.5 -47.5t33.5 -108.5q-2 -100 -41 -175t-93 -127t-112.5 -84t-97.5 -44z" />
<glyph unicode="-" horiz-adv-x="702" d="M115 483l51 213h489l-51 -213h-489z" />
<glyph unicode="." horiz-adv-x="514" d="M68 135q0 72 45 114t118 42q76 0 121 -42t45 -114t-45 -115t-121 -43q-74 0 -118.5 43t-44.5 115z" />
<glyph unicode="/" horiz-adv-x="794" d="M-158 -193l1043 1651l176 -94l-1045 -1655z" />
<glyph unicode="0" d="M113 469q0 213 48 394t134 314.5t203.5 209t257.5 75.5q80 0 150.5 -24.5t123.5 -82t84 -153.5t31 -237q0 -190 -44 -369.5t-127 -318t-203 -222.5t-269 -84q-100 0 -174 39t-121 105.5t-70.5 158t-23.5 195.5zM367 471q0 -84 14 -137t37.5 -84t56.5 -42t70 -11 q72 0 134 67.5t109.5 176t75 244.5t27.5 276q0 63 -7 114t-26.5 87t-52.5 55.5t-84 19.5q-68 0 -131.5 -63.5t-113.5 -169t-79.5 -244.5t-29.5 -289z" />
<glyph unicode="1" d="M119 0l47 225h270l174 809l58 140l-119 -121l-199 -127l-80 157l527 375h143l-262 -1233h264l-47 -225h-776z" />
<glyph unicode="2" d="M74 0l28 137l136 126l161 156q84 83 165 172t144.5 175t103.5 166t40 145q0 68 -35 111t-133 43q-63 0 -130 -30t-132 -77l-62 193q98 72 197.5 108.5t230.5 36.5q152 0 235 -87t83 -228q0 -115 -53.5 -232.5t-135 -230.5t-180 -213t-186.5 -180l-121 -84v-10l143 28h367 l-47 -225h-819z" />
<glyph unicode="3" d="M84 35l117 227q41 -27 100 -43t137 -16q80 0 138.5 22.5t97.5 59.5t57.5 85t18.5 97q0 98 -52.5 143t-189.5 45h-143l30 142l301 338l131 92l-155 -19h-326l49 226h744l-31 -146l-350 -389l-99 -55v-10l82 12q41 -4 87 -24.5t85 -60.5t65 -102.5t26 -152.5 q0 -117 -38 -215t-114 -169t-188.5 -111t-260.5 -40q-88 0 -178 16.5t-141 47.5z" />
<glyph unicode="4" d="M57 399l31 152l805 893h209l-176 -834h215l-45 -211h-215l-84 -399h-236l84 399h-588zM336 596l127 14h227l68 316l53 172h-6l-98 -148l-258 -276z" />
<glyph unicode="5" d="M74 33l114 217q41 -20 93.5 -33.5t130.5 -13.5q86 0 147.5 24.5t101 65.5t59 94t19.5 113q0 102 -62.5 145t-207.5 43l-158 -6l158 752h670l-52 -250h-450l-59 -283l75 8q82 0 144.5 -26.5t105.5 -73.5t65.5 -112.5t22.5 -141.5q0 -283 -159.5 -433.5t-458.5 -150.5 q-41 0 -84 5.5t-83 13.5t-73.5 19.5t-58.5 23.5z" />
<glyph unicode="6" d="M127 432q0 209 78 390.5t206 317.5t291.5 220t337.5 102l15 -211q-102 -16 -200.5 -58t-183.5 -106.5t-150.5 -146.5t-100.5 -176q55 59 136 90t167 31q158 0 246 -99.5t88 -263.5q0 -111 -33 -211t-99.5 -175t-167 -120t-233.5 -45q-66 0 -136.5 23.5t-128.5 78 t-95 142.5t-37 217zM367 449q0 -111 46 -181.5t142 -70.5q117 0 184.5 77.5t67.5 200.5q0 82 -42 133t-140 51q-78 0 -145.5 -34.5t-102.5 -87.5q-4 -20 -7 -46t-3 -42z" />
<glyph unicode="7" d="M127 0l674 1104l104 100l-119 -20h-481l51 250h881l-16 -78l-830 -1356h-264z" />
<glyph unicode="8" d="M111 313q0 78 26.5 144.5t71.5 121t104.5 95.5t124.5 65q-29 27 -54.5 54.5t-45 62.5t-30.5 81t-11 107q0 100 38 179.5t103.5 131.5t151.5 79.5t182 27.5q172 0 262 -89t90 -228q0 -72 -23.5 -130.5t-63.5 -107.5t-92 -89t-109 -70q92 -72 132 -153t40 -175 q0 -104 -38 -187t-105.5 -141.5t-162 -89.5t-206.5 -31q-80 0 -151 22.5t-123 65.5t-81.5 106.5t-29.5 147.5zM350 362q0 -72 43 -118.5t142 -46.5q45 0 87 12t74.5 35.5t51 59.5t18.5 85q0 47 -15.5 84t-41 66.5t-60.5 55.5t-71 48q-104 -53 -166 -124t-62 -157zM539 1047 q0 -72 45 -122.5t114 -90.5q37 27 70 57.5t58.5 63t41 67.5t15.5 68q0 74 -37 110.5t-105 36.5q-86 0 -144 -49t-58 -141z" />
<glyph unicode="9" d="M203 934q0 123 41 221t113.5 166t170 104.5t211.5 36.5q86 0 160 -26.5t128 -83t86 -141.5t32 -201q0 -164 -42 -302.5t-112.5 -251t-164 -200.5t-196 -149.5t-208 -95.5t-199.5 -40l-12 209q113 20 212 64.5t179 105t138.5 135t90.5 154.5q-59 -47 -128.5 -70.5 t-167.5 -23.5q-57 0 -117 21.5t-107 67.5t-77.5 121t-30.5 179zM453 973q0 -59 15 -98t42 -64t58.5 -35t66.5 -10q78 0 145.5 24.5t106.5 65.5q6 23 11 64t5 59q0 117 -46 189.5t-150 72.5q-49 0 -94.5 -15.5t-81 -48t-57 -83.5t-21.5 -121z" />
<glyph unicode=":" horiz-adv-x="643" d="M184 160q0 72 45 113.5t119 41.5q76 0 121 -42t45 -113q0 -72 -45 -115t-121 -43q-74 0 -119 43t-45 115zM338 877q0 72 45 113.5t119 41.5q76 0 121 -42t45 -113q0 -72 -45 -115t-121 -43q-74 0 -119 43t-45 115z" />
<glyph unicode=";" horiz-adv-x="628" d="M106 -193q59 23 108.5 74t68.5 109q-35 2 -66 34.5t-31 86.5q0 82 52.5 127t123.5 45q72 0 108 -47.5t34 -108.5q-2 -100 -41 -175t-93.5 -127t-112.5 -84t-97 -44zM324 877q0 72 45 113.5t118 41.5q76 0 121 -42t45 -113q0 -72 -45 -115t-121 -43q-74 0 -118.5 43 t-44.5 115z" />
<glyph unicode="&#x3c;" horiz-adv-x="1034" d="M104 584v143l791 473l117 -184l-459 -285l-186 -72l184 -63l471 -281l-117 -184z" />
<glyph unicode="=" horiz-adv-x="1034" d="M119 1004h905v-229h-905v229zM119 612h905v-229h-905v229z" />
<glyph unicode="&#x3e;" horiz-adv-x="1034" d="M123 1018l115 182l802 -452v-144l-792 -473l-115 186l457 283l186 74l-184 61z" />
<glyph unicode="?" horiz-adv-x="880" d="M168 135q0 72 45 114t119 42q76 0 121 -42t45 -114t-45 -115t-121 -43q-74 0 -119 43t-45 115zM233 1339q84 51 182.5 87t239.5 36q172 0 252 -72.5t80 -195.5q0 -109 -32.5 -183.5t-84 -131t-113 -100.5t-117.5 -93t-101 -110.5t-62 -149.5h-217q12 111 50 189.5 t88.5 137t106.5 102.5t102 85t77 84t31 100q0 55 -32 86t-114 31q-63 0 -139 -27.5t-133 -66.5z" />
<glyph unicode="@" horiz-adv-x="2168" d="M205 483q0 223 80 403.5t215 307.5t313 195.5t377 68.5q188 0 350 -54t280.5 -155.5t186.5 -248t68 -332.5q0 -131 -47.5 -246t-127 -199t-187 -133t-230.5 -49q-51 0 -95.5 11t-75 38t-45 70t-7.5 106h-9q-31 -43 -65.5 -84t-77.5 -72.5t-94 -50t-113 -18.5 q-51 0 -95 21.5t-77 60.5t-52.5 94t-19.5 123q0 127 41 247t111 212t163 148.5t197 56.5q72 0 121 -21.5t92 -56.5l64 65h143l-100 -555q-4 -25 -6 -46t-2 -38q0 -98 75 -98q53 0 105.5 24.5t93.5 76t65.5 129t24.5 184.5q0 154 -51 263t-140 180t-210 103.5t-258 32.5 q-160 0 -298 -57t-239.5 -158.5t-159 -240t-57.5 -299.5q0 -160 48 -287t141.5 -217t229.5 -138.5t312 -48.5q59 0 135 15.5t138 44.5l63 -197q-86 -41 -172 -57.5t-199 -16.5q-201 0 -369.5 57.5t-291.5 170t-192.5 279.5t-69.5 386zM905 408q0 -68 29 -112t96 -44 q29 0 61.5 17.5t63.5 47t58.5 66.5t50.5 78l53 282q-29 23 -57.5 36.5t-69.5 13.5q-61 0 -113.5 -36t-90.5 -91.5t-59.5 -123.5t-21.5 -134z" />
<glyph unicode="A" horiz-adv-x="1191" d="M-78 0l797 1444h196l187 -1444h-268l-41 317h-418l-170 -317h-283zM492 543h290l-32 319l2 225h-11l-82 -227z" />
<glyph unicode="B" horiz-adv-x="1163" d="M41 10l299 1413q39 6 88 12.5t104.5 10.5t114 6t113.5 2q94 0 175 -19.5t139.5 -60.5t92 -105.5t33.5 -154.5q0 -68 -22.5 -130t-64.5 -111.5t-100.5 -82t-131.5 -42.5v-11q39 -8 77.5 -29.5t69.5 -55.5t49.5 -80t18.5 -103q0 -131 -51.5 -224t-137.5 -151.5t-200.5 -86 t-241.5 -27.5h-85q-52 0 -111.5 3t-119 9t-108.5 18zM342 223q8 -4 29.5 -6t47.5 -3l52 -2q27 -1 45 -1q51 0 105.5 12.5t98.5 41t72.5 73.5t28.5 111q0 51 -22.5 83.5t-59.5 52t-85 26.5t-99 7h-131zM471 831h88q29 0 68 1.5t65 5.5q37 6 79 20t76 41t56.5 68t22.5 102 q0 88 -58.5 121t-148.5 33q-53 0 -98.5 -2t-69.5 -7z" />
<glyph unicode="C" horiz-adv-x="1099" d="M119 557q0 242 67.5 413t178 280.5t253 160.5t291.5 51q117 0 200 -17.5t130 -39.5l-104 -238q-41 23 -98.5 34t-145.5 11q-104 0 -194.5 -43t-156 -122.5t-103.5 -194.5t-38 -260q0 -174 87 -272.5t233 -98.5q92 0 152.5 19.5t113.5 48.5l4 -230q-137 -88 -336 -88 q-135 0 -235.5 45t-167 125t-99 186.5t-32.5 229.5z" />
<glyph unicode="D" horiz-adv-x="1269" d="M41 -2l303 1436q43 6 94 10t95.5 6t76.5 2q18 0 52 1t75 1q125 0 227.5 -31.5t175 -97t112.5 -168t40 -244.5q0 -90 -15 -193.5t-52 -207.5t-101.5 -200.5t-162 -170t-233.5 -119t-316 -45.5q-31 0 -62 1.5t-43 1.5q-41 2 -91 5l-100 6q-50 3 -75 7zM356 233 q8 -2 25.5 -3t38 -2t39.5 -1h28q143 0 243.5 64.5t163 162t90.5 211t28 212.5q0 164 -69 245.5t-228 81.5q-41 0 -86 -2t-70 -6z" />
<glyph unicode="E" horiz-adv-x="1030" d="M41 0l303 1434h266h541l-53 -250h-541l-72 -334h494l-55 -250h-490l-76 -350h551l-51 -250h-551h-266z" />
<glyph unicode="F" horiz-adv-x="1001" d="M41 0l303 1434h266h541l-53 -250h-541l-76 -355h498l-51 -249h-498l-123 -580h-266z" />
<glyph unicode="G" horiz-adv-x="1198" d="M119 553q0 236 64.5 408t175 283.5t258 164.5t311.5 53q117 0 208 -19.5t138 -39.5l-107 -236q-43 20 -107.5 32.5t-156.5 12.5q-109 0 -201 -41t-159.5 -120.5t-105.5 -197.5t-38 -269q0 -170 80 -266.5t215 -96.5q100 0 176 51l58 273l-209 33l37 170h430l-135 -639 q-92 -72 -193.5 -105t-218.5 -33q-113 0 -208 39t-164.5 113t-108.5 182.5t-39 247.5z" />
<glyph unicode="H" horiz-adv-x="1277" d="M41 0l303 1434h266l-123 -584h498l123 584h266l-303 -1434h-266l127 600h-498l-127 -600h-266z" />
<glyph unicode="I" horiz-adv-x="569" d="M72 0l303 1434h264l-303 -1434h-264z" />
<glyph unicode="J" horiz-adv-x="663" d="M-104 23l102 229q47 -27 111 -27q43 0 71.5 17.5t48 48.5t31.5 73t25 93l204 977h267l-224 -1049q-18 -86 -46.5 -160.5t-76 -130t-118 -87.5t-170.5 -32q-57 0 -120.5 12.5t-104.5 35.5z" />
<glyph unicode="K" horiz-adv-x="1214" d="M41 0l303 1434h266l-135 -635l64 22l485 613h319l-516 -609l-122 -71l90 -80l311 -674h-297l-277 612h-96l-129 -612h-266z" />
<glyph unicode="L" horiz-adv-x="1013" d="M41 0l303 1434h266l-252 -1184h596l-51 -250h-596h-266z" />
<glyph unicode="M" horiz-adv-x="1570" d="M41 0l303 1434h236l215 -656l26 -164h10l95 168l483 652h256l-303 -1434h-264l157 743l91 283h-13l-135 -231l-403 -531h-84l-193 537l-37 225h-10l-20 -281l-158 -745h-252z" />
<glyph unicode="N" horiz-adv-x="1292" d="M41 0l307 1444h184l353 -766l63 -223h13l14 223l162 756h252l-308 -1444h-184l-350 760l-68 229h-10l-18 -229l-158 -750h-252z" />
<glyph unicode="O" horiz-adv-x="1318" d="M119 537q0 190 52 359t148.5 295t232.5 198.5t304 72.5q111 0 200 -32.5t151.5 -101t97 -173t34.5 -248.5q0 -193 -52 -362.5t-147.5 -297.5t-227.5 -202t-291 -74q-242 0 -371 142.5t-131 423.5zM399 545q0 -147 56.5 -235.5t185.5 -88.5q94 0 171 56.5t132 151.5 t85 218t30 256q0 162 -63.5 235.5t-174.5 73.5q-92 0 -169 -53t-133 -144t-88 -213t-32 -257z" />
<glyph unicode="P" horiz-adv-x="1126" d="M41 0l301 1419q86 16 183.5 25.5t195.5 9.5q104 0 193.5 -23.5t156 -72.5t103 -126t36.5 -183q0 -160 -55 -267.5t-146 -174t-208 -94.5t-238 -28h-32q-22 0 -45 1t-44.5 3.5t-31.5 4.5l-103 -494h-266zM463 735q8 -2 22.5 -4t32 -3t32.5 -1h23q70 0 134.5 15.5t113.5 49 t79 89t30 135.5q0 59 -19.5 98t-52.5 60.5t-77 29.5t-93 8q-37 0 -70.5 -3t-56.5 -7z" />
<glyph unicode="Q" horiz-adv-x="1318" d="M119 537q0 190 52 359t148.5 295t232.5 198.5t304 72.5q111 0 200 -32.5t151.5 -101t97 -173t34.5 -248.5q0 -193 -52 -362.5t-147.5 -297.5t-227.5 -202t-291 -74q-242 0 -371 142.5t-131 423.5zM328 -317l51 241q57 12 115 13q82 0 158.5 -20.5t155.5 -44.5t163 -44.5 t180 -20.5q43 0 89 5.5t95 17.5l-51 -244q-98 -27 -194 -26q-98 0 -188.5 21.5t-173.5 45.5l-159 46q-76 22 -149 22q-47 0 -92 -12zM399 545q0 -147 56.5 -235.5t185.5 -88.5q94 0 171 56.5t132 151.5t85 218t30 256q0 162 -63.5 235.5t-174.5 73.5q-92 0 -169 -53 t-133 -144t-88 -213t-32 -257z" />
<glyph unicode="R" horiz-adv-x="1196" d="M41 0l301 1419q98 18 198.5 26.5t180.5 8.5q94 0 178 -22.5t145.5 -68.5t97.5 -119t36 -171q0 -113 -34 -195.5t-89.5 -139t-126 -88.5t-144.5 -42l80 -63l199 -545h-295l-197 561l-141 27l-123 -588h-266zM471 778h109q59 0 116.5 11.5t101.5 41t71.5 78.5t27.5 125 q0 70 -47 120t-152 50q-41 0 -76.5 -3t-60.5 -7z" />
<glyph unicode="S" horiz-adv-x="1044" d="M-4 57l137 238q20 -12 53 -26.5t75 -27t91 -20.5t99 -8q57 0 108 9t89 30.5t59.5 54.5t21.5 82q0 55 -37 94t-93 74l-121 73q-65 38 -121 89t-93 123.5t-37 177.5q0 119 42 203t114 137t168 77.5t207 24.5q59 0 118.5 -6t112.5 -17.5t98.5 -26.5t75.5 -34l-135 -233 q-39 25 -114.5 50.5t-168.5 25.5q-47 0 -92 -9.5t-79.5 -30t-55 -53t-20.5 -77.5q0 -59 36.5 -100.5t93 -77l121 -72.5t121 -86t93 -118t36.5 -169q0 -121 -42 -208t-118.5 -142t-184 -81t-238.5 -26q-72 0 -136.5 8.5t-120 20.5t-97 27.5t-66.5 29.5z" />
<glyph unicode="T" horiz-adv-x="1120" d="M197 1184l53 250h1059l-52 -250h-397l-252 -1184h-264l250 1184h-397z" />
<glyph unicode="U" horiz-adv-x="1232" d="M129 356q0 41 5 84t16 90l192 904h264l-188 -902q-16 -78 -17 -126q0 -98 51.5 -139.5t149.5 -41.5q123 0 190.5 72t102.5 231l192 906h250l-194 -926q-31 -147 -80 -248.5t-119 -165t-164 -91.5t-217 -28q-119 0 -200.5 28t-134 79t-76 120.5t-23.5 153.5z" />
<glyph unicode="V" horiz-adv-x="1185" d="M207 1434h291l92 -840l-15 -244h9l90 244l442 840h299l-809 -1444h-192z" />
<glyph unicode="W" horiz-adv-x="1691" d="M223 1434h281l6 -799l-29 -254h11l79 258l406 795h180l60 -799l-27 -254h10l82 258l336 795h287l-682 -1444h-187l-75 796l16 220h-12l-78 -222l-408 -794h-186z" />
<glyph unicode="X" horiz-adv-x="1245" d="M-49 0l573 731l-231 703h289l123 -414l20 -146l76 146l305 414h319l-538 -693l256 -741h-285l-147 442l-25 152l-82 -152l-330 -442h-323z" />
<glyph unicode="Y" horiz-adv-x="1165" d="M217 1434h295l133 -539l-4 -152h8l64 156l358 535h305l-637 -899l-112 -535h-265l111 532z" />
<glyph unicode="Z" horiz-adv-x="1060" d="M-23 0l54 250l737 852l119 82h-658l52 250h944l-51 -250l-742 -858l-115 -76h658l-53 -250h-945z" />
<glyph unicode="[" horiz-adv-x="643" d="M4 -471l402 1905h456l-45 -224h-215l-309 -1456h215l-49 -225h-455z" />
<glyph unicode="\" horiz-adv-x="868" d="M74 1368l211 88l682 -1651l-207 -92z" />
<glyph unicode="]" horiz-adv-x="641" d="M-160 -471l49 225h215l308 1456h-215l45 224h458l-403 -1905h-457z" />
<glyph unicode="^" horiz-adv-x="1034" d="M143 846l402 598h143l379 -598h-268l-146 250l-45 143l-51 -145l-158 -248h-256z" />
<glyph unicode="_" horiz-adv-x="909" d="M-94 -240h909v-219h-909v219z" />
<glyph unicode="`" horiz-adv-x="487" d="M553 1413l14 62h264l50 -316h-142z" />
<glyph unicode="a" horiz-adv-x="1030" d="M68 295q0 150 37.5 287t117.5 241.5t202 167t290 62.5q72 0 156.5 -13.5t164.5 -35.5l-127 -594q-16 -78 -23 -158t-7 -152q0 -29 1 -54.5t3 -47.5h-187l-28 176h-9q-23 -37 -58.5 -72.5t-78.5 -65.5t-91 -47.5t-99 -17.5q-135 0 -199.5 88.5t-64.5 235.5zM328 344 q0 -66 21.5 -114t78.5 -48q37 0 69.5 15.5t60.5 40t49.5 53t37.5 53.5l103 477q-23 10 -52.5 15.5t-58.5 5.5q-74 0 -131 -44t-97 -115t-60.5 -160t-20.5 -179z" />
<glyph unicode="b" horiz-adv-x="1048" d="M45 57l291 1377h252l-127 -590h8q27 37 61.5 72.5t76.5 65.5t91.5 48.5t108.5 18.5q111 0 166 -78t55 -207q0 -195 -54 -342.5t-142.5 -246.5t-199 -149.5t-222.5 -50.5q-125 0 -220.5 23.5t-144.5 58.5zM328 215q23 -16 55.5 -22.5t71.5 -6.5q51 0 106 34t101.5 99.5 t76 160.5t29.5 216q0 141 -82 142q-41 0 -81 -22.5t-76.5 -56.5t-66.5 -73t-48 -74z" />
<glyph unicode="c" horiz-adv-x="843" d="M70 324q0 172 49 307t130 228t184.5 143.5t211.5 50.5q96 0 152.5 -18.5t101.5 -41.5l-94 -200q-39 23 -81 30.5t-91 7.5q-55 0 -107.5 -35.5t-94.5 -94t-66.5 -136.5t-24.5 -159q0 -104 45 -158.5t119 -54.5q61 0 113.5 19t93.5 44l47 -172q-66 -49 -153 -81t-173 -32 q-98 0 -166.5 29t-111.5 78t-63.5 112.5t-20.5 133.5z" />
<glyph unicode="d" horiz-adv-x="1038" d="M76 309q0 143 39 276.5t109.5 237t172 165t224.5 61.5q59 0 98 -7.5t74 -23.5l88 416h252l-228 -1074q-18 -86 -26.5 -159.5t-8.5 -139.5v-31q0 -15 2 -32h-172l-28 176h-8q-23 -37 -59 -72.5t-79 -65.5t-91 -47.5t-95 -17.5q-127 0 -195.5 90t-68.5 248zM336 328 q0 -59 26.5 -102.5t75.5 -43.5q31 0 62.5 15.5t59.5 40t51.5 53t37.5 53.5l99 463q-25 16 -57 23.5t-85 7.5q-61 0 -111.5 -42t-85 -113t-54 -163t-19.5 -192z" />
<glyph unicode="e" horiz-adv-x="954" d="M70 340q0 164 51 296t134 224t187.5 142.5t208.5 50.5q84 0 144.5 -21.5t99.5 -59.5t57.5 -87t18.5 -105q0 -84 -43 -147.5t-120 -105.5t-185.5 -63.5t-237.5 -21.5q-16 0 -30.5 1t-30.5 1q-4 -25 -6.5 -44t-2.5 -35q0 -92 48.5 -137.5t136.5 -45.5q90 0 161.5 27 t108.5 53l53 -164q-63 -53 -163.5 -90t-233.5 -37q-166 0 -261 97.5t-95 271.5zM360 604q57 0 122 4t120 19.5t92 45t37 81.5q0 31 -22.5 62.5t-94.5 31.5q-90 0 -156.5 -70t-97.5 -174z" />
<glyph unicode="f" horiz-adv-x="602" d="M-264 -369l69 187q35 -14 70 -18.5t88 -4.5q66 0 101.5 52.5t54.5 168.5l129 797h-144l46 211h131l26 137q14 76 37 132.5t60.5 94t92 56t134.5 18.5q33 0 75 -3t82.5 -10t79.5 -17.5t70 -24.5l-59 -186q-47 18 -96.5 24t-96.5 6q-66 0 -95.5 -38.5t-41.5 -120.5l-12 -68 h204l-41 -211h-196l-152 -883q-12 -76 -34.5 -140t-62.5 -112.5t-101.5 -76t-151.5 -27.5q-74 0 -144.5 11t-121.5 46z" />
<glyph unicode="g" horiz-adv-x="1034" d="M-20 -342l94 186l43 -19q25 -11 56.5 -22.5t73.5 -18.5t97 -7q102 0 162.5 63.5t87.5 173.5l39 160h-8q-47 -74 -128 -132t-184 -58q-111 0 -179 83t-68 222q0 158 45 296t125.5 241.5t191.5 163t244 59.5q125 0 218 -21.5t150 -48.5l-206 -979q-27 -121 -72 -204 t-107.5 -134t-143.5 -73.5t-179 -22.5q-72 0 -128.5 10t-99.5 24.5t-74.5 30t-49.5 27.5zM326 338q0 -66 27.5 -104.5t72.5 -38.5q35 0 72 21.5t70.5 54t60 72.5t43.5 75l88 399q-23 12 -57.5 16.5t-69.5 4.5q-66 0 -122 -39t-97 -106.5t-64.5 -159t-23.5 -195.5z" />
<glyph unicode="h" horiz-adv-x="1081" d="M37 0l303 1434h252l-129 -590h8q27 33 64.5 69.5t84 67.5t100.5 51.5t118 20.5q98 0 152 -49.5t54 -174.5q0 -76 -24 -192l-135 -637h-252l123 582q20 90 20 149q0 53 -20.5 76.5t-63.5 23.5q-39 0 -82 -24.5t-82 -61t-70.5 -78.5t-47.5 -77l-121 -590h-252z" />
<glyph unicode="i" horiz-adv-x="524" d="M272 1024h252l-217 -1024h-252zM311 1315q0 68 44 104.5t112 36.5q66 0 111.5 -37t45.5 -104q0 -66 -46 -103.5t-111 -37.5q-68 0 -112 37.5t-44 103.5z" />
<glyph unicode="j" horiz-adv-x="499" d="M252 1024h254l-227 -1067q-39 -184 -131.5 -281.5t-249.5 -97.5q-63 0 -127 14l49 218q51 -4 88 9t62.5 41.5t43 72.5t29.5 100zM289 1315q0 68 44 104.5t112 36.5q66 0 111.5 -37t45.5 -104q0 -66 -46 -103.5t-111 -37.5q-68 0 -112 37.5t-44 103.5z" />
<glyph unicode="k" horiz-adv-x="952" d="M37 0l303 1434h252l-180 -846l75 26l289 410h281l-305 -412l-123 -77l92 -78l156 -457h-271l-147 424h-82l-88 -424h-252z" />
<glyph unicode="l" horiz-adv-x="557" d="M68 135q0 47 12 109l252 1190h252l-240 -1131q-6 -29 -6 -50q0 -23 7 -38q13 -29 44 -29q57 0 109 23l-6 -182q-37 -23 -107 -37.5t-137 -14.5q-88 0 -134 34t-46 126z" />
<glyph unicode="m" horiz-adv-x="1570" d="M37 0l217 1024h197l-13 -180h8l67 69q36 37 81 68t100.5 51.5t120.5 20.5q82 0 124 -60q38 -54 38 -140v-17q31 39 70.5 77.5t86 69.5t98.5 50.5t107 19.5q94 0 144.5 -44t50.5 -165q0 -88 -31 -230l-129 -614h-252l121 575q10 47 16.5 88.5t6.5 71.5q0 47 -17.5 71.5 t-58.5 24.5q-33 0 -66.5 -19t-64.5 -49t-56.5 -64.5t-39.5 -65.5l-132 -633h-251l116 557q12 57 19.5 101t7.5 79q0 94 -72 94q-35 0 -69.5 -18t-64.5 -47t-55.5 -62.5t-41.5 -64.5l-131 -639h-252z" />
<glyph unicode="n" horiz-adv-x="1067" d="M37 0l217 1024h190l-10 -180h8q27 33 63 69.5t83 67.5t105.5 51.5t131.5 20.5q92 0 147.5 -50.5t55.5 -166.5q0 -31 -3 -66t-13 -76l-148 -694h-252l136 635q12 57 12 100q0 45 -18.5 70.5t-67.5 25.5q-37 0 -74 -18t-69.5 -49t-61.5 -69t-49 -77l-131 -618h-252z" />
<glyph unicode="o" horiz-adv-x="1015" d="M70 332q0 162 46 295t122.5 227t178 146.5t212.5 52.5q98 0 165.5 -31t109.5 -82t60.5 -116.5t18.5 -135.5q0 -160 -45 -292t-121 -226t-176 -146.5t-211 -52.5q-96 0 -163.5 32t-111.5 83t-64.5 115.5t-20.5 130.5zM330 367q0 -184 133 -185q49 0 96 43t84 113t58.5 158 t21.5 176q0 82 -27.5 126t-103.5 44q-49 0 -96 -41t-84 -107.5t-59.5 -152.5t-22.5 -174z" />
<glyph unicode="p" horiz-adv-x="1036" d="M-53 -410l303 1434h186l-10 -180h8q29 39 66 76.5t82 66.5t96 47.5t110 18.5q104 0 168 -72t64 -225q0 -174 -46 -318.5t-123 -248t-180.5 -161t-215.5 -57.5q-53 0 -100.5 10.5t-69.5 26.5l-88 -418h-250zM328 217q51 -35 114 -35t121 43t102 115t69.5 167t25.5 200 q0 59 -27.5 97t-75.5 38q-37 0 -71.5 -18.5t-65.5 -46t-55.5 -62.5t-42.5 -68z" />
<glyph unicode="q" horiz-adv-x="1026" d="M59 285q0 156 50.5 295t137.5 243.5t202.5 165t244.5 60.5q98 0 191.5 -21.5t144.5 -50.5l-301 -1387h-246l125 570h-8q-20 -35 -50 -68t-68 -60.5t-83 -44t-96 -16.5q-68 0 -114 26t-74.5 70t-42 100.5t-13.5 117.5zM319 317q0 -63 24 -99t65 -36q39 0 77.5 23.5 t72.5 59.5t61.5 78t44.5 79l81 395q-29 12 -59.5 16.5t-60.5 4.5q-61 0 -117.5 -44t-97.5 -117t-66 -167.5t-25 -192.5z" />
<glyph unicode="r" horiz-adv-x="702" d="M37 0l217 1024h186l2 -180h9q45 82 109.5 139t162.5 57q43 0 102 -16l-63 -219q-20 6 -38.5 10t-39.5 4q-84 0 -154.5 -54t-107.5 -126l-133 -639h-252z" />
<glyph unicode="s" horiz-adv-x="811" d="M-2 39l80 201q41 -23 105.5 -40.5t135.5 -17.5q72 0 110 28t40 85q0 41 -24.5 70.5t-62.5 56.5l-81 54q-43 28 -81 63.5t-62.5 85t-24.5 118.5q0 68 26.5 125.5t75 98.5t117 63.5t154.5 22.5q119 0 196.5 -17.5t122.5 -44.5l-69 -192q-41 18 -99.5 30.5t-121.5 12.5 q-66 0 -104 -22.5t-38 -71.5q0 -33 24.5 -58.5t62.5 -52.5l81 -54q43 -28 81 -67t62.5 -89t24.5 -120q0 -170 -110.5 -253t-294.5 -83q-104 0 -191.5 19.5t-134.5 48.5z" />
<glyph unicode="t" horiz-adv-x="655" d="M82 813l49 211h133l41 193l268 75l-57 -268h240l-47 -211h-238l-100 -463q-12 -55 -13 -90q0 -45 20.5 -61.5t61.5 -16.5q39 0 71 8.5t67 26.5v-188q-23 -12 -54.5 -23.5t-68.5 -18.5t-76 -11.5t-72 -4.5q-104 0 -160.5 48.5t-56.5 146.5q0 20 3 42.5t7 47.5l119 557 h-137z" />
<glyph unicode="u" horiz-adv-x="1048" d="M80 197q0 76 20 165l142 662h252l-134 -633q-12 -61 -12 -102t16.5 -63.5t57.5 -22.5q35 0 70.5 17.5t68.5 45t60.5 61t46.5 66.5l131 631h252l-129 -614q-10 -41 -17.5 -96.5t-13.5 -114t-8 -111.5q-1 -27 -1 -49t1 -39h-203l-10 184h-8q-29 -39 -67 -76.5t-84 -68.5 t-100.5 -49.5t-115.5 -18.5q-96 0 -155.5 48.5t-59.5 177.5z" />
<glyph unicode="v" horiz-adv-x="917" d="M82 1024h278l68 -537l4 -157h6l62 162l280 532h285l-627 -1034h-155z" />
<glyph unicode="w" horiz-adv-x="1388" d="M94 1024h258l33 -514l-12 -182h10l70 184l270 512h188l66 -524l-2 -170h10l62 172l237 522h246l-522 -1034h-187l-71 573v129h-9l-53 -131l-307 -571h-193z" />
<glyph unicode="x" horiz-adv-x="1015" d="M-84 0l424 524l-184 500h284l78 -219l27 -143l90 143l178 219h293l-399 -492l204 -532h-278l-98 246l-31 151l-92 -151l-203 -246h-293z" />
<glyph unicode="y" horiz-adv-x="925" d="M-35 -389l68 201q12 -6 25.5 -8.5t25.5 -2.5q49 0 100.5 47.5t102.5 151.5l-193 1024h289l59 -575l2 -160h13l55 162l279 573h268l-492 -920l-115 -210q-54 -96 -109.5 -166t-115 -109t-127.5 -39q-90 0 -135 31z" />
<glyph unicode="z" horiz-adv-x="890" d="M-27 0l45 221l461 490l146 92h-484l49 221h762l-47 -221l-471 -498l-131 -84h479l-47 -221h-762z" />
<glyph unicode="{" horiz-adv-x="729" d="M133 379l45 205q74 0 123 42t68 132l90 428q23 111 86 180.5t174 69.5h233l-47 -226h-98q-53 0 -83 -28.5t-44 -94.5l-84 -399q-18 -90 -69.5 -136t-106.5 -56l-4 -21q51 -8 80.5 -61.5t11.5 -139.5l-84 -397q-14 -66 4 -94.5t74 -28.5h96l-49 -225h-234 q-102 0 -141 64.5t-12 183.5l88 420q23 104 -9 143t-108 39z" />
<glyph unicode="|" horiz-adv-x="475" d="M193 -266v1700h217v-1700h-217z" />
<glyph unicode="}" horiz-adv-x="735" d="M-154 -471l50 225h98q51 0 79.5 28t43.5 95l86 399q18 90 68.5 136.5t107.5 56.5l6 20q-53 8 -84 61.5t-12 139.5l84 397q14 63 -3.5 93t-72.5 30h-94l45 226h231q102 0 142.5 -64.5t15.5 -183.5l-90 -420q-23 -104 10 -143t109 -39l-43 -205q-156 0 -193 -174l-92 -428 q-23 -111 -89.5 -180.5t-176.5 -69.5h-226z" />
<glyph unicode="~" horiz-adv-x="1034" d="M92 774q96 78 173 107.5t143 29.5q59 0 110 -17t98 -37l94 -37q46 -17 93 -17q37 0 76 12t82 47l96 -211q-74 -55 -135.5 -77.5t-114.5 -22.5q-57 0 -106.5 18.5t-95.5 41t-93 41t-100 18.5q-49 0 -105.5 -21.5t-124.5 -79.5z" />
<glyph unicode="&#xa1;" horiz-adv-x="579" d="M534.01 889.008q0 -71.9951 -44.998 -113.992q-44.9971 -41.998 -117.992 -41.998q-75.9961 0 -120.993 41.998q-44.9971 41.9971 -44.9971 113.992q0 71.9961 44.9971 114.993q44.9971 42.998 120.993 42.998q73.9951 0 118.492 -42.998 q44.498 -42.9971 44.498 -114.993zM403.018 598.026l-17.999 -333.979l-142.991 -673.959h-262.984l143.991 673.959l120.993 333.979h158.99z" />
<glyph unicode="&#xa2;" d="M190 324q0 154 39 277.5t105.5 215.5t155 149.5t184.5 75.5l39 187h235l-41 -189q94 -18 148 -47l-92 -200q-23 12 -52.5 20t-62.5 12l-133 -624q45 10 85 24.5t66 30.5l49 -172q-43 -35 -105 -60.5t-128 -37.5l-39 -191h-235l38 187q-68 14 -116.5 46.5t-79.5 79 t-45.5 102t-14.5 114.5zM438 406q0 -86 29 -133.5t74 -65.5l129 608q-45 -18 -87 -55t-74 -90.5t-51.5 -119.5t-19.5 -144z" />
<glyph unicode="&#xa3;" d="M61 0l50 223h4q61 2 117.5 29t99.5 73t68.5 107.5t25.5 132.5v21q0 10 -2 20h-240l47 211h144q-10 41 -18.5 89t-8.5 114q0 115 44 199t118 138t168 79.5t194 25.5q92 0 175 -19.5t131 -51.5l-86 -199q-35 18 -95.5 33.5t-142.5 15.5q-49 0 -95 -17.5t-80 -50 t-54.5 -77.5t-20.5 -103q0 -59 8.5 -99t20.5 -77h287l-48 -211h-194q0 -8 1 -13t1 -13q0 -102 -43 -186.5t-94 -129.5l-97 -61l-2 -13l138 31h446l-49 -221h-918z" />
<glyph unicode="&#xa4;" d="M80 307l158 160l73 35q-25 43 -39 93t-14 112q0 59 15.5 110t41.5 98l-77 35l-158 160l156 164l159 -158l39 -76q41 31 97.5 46.5t117.5 15.5q59 0 117.5 -15.5t97.5 -44.5l41 74l160 158l158 -164l-158 -160l-76 -32q29 -43 41 -97.5t12 -113.5q0 -61 -13 -115.5 t-40 -91.5l76 -33l158 -160l-158 -164l-160 158l-37 76q-39 -29 -99 -45.5t-120 -16.5q-61 0 -117.5 15.5t-97.5 44.5l-39 -74l-159 -158zM481 709q0 -78 47 -127.5t123 -49.5t122 49.5t46 127.5q0 74 -46 125t-122 51t-123 -51t-47 -125z" />
<glyph unicode="&#xa5;" d="M133 246l35 164h254l24 116h-251l34 164h174l-210 744h311l137 -539l-6 -152h10l62 156l354 535h291l-527 -744h179l-35 -164h-256l-25 -116h256l-35 -164h-256l-51 -246h-266l51 246h-254z" />
<glyph unicode="&#xa6;" horiz-adv-x="464" d="M123 -266v702h219v-702h-219zM123 731v703h219v-703h-219z" />
<glyph unicode="&#xa7;" horiz-adv-x="1034" d="M86 61l88 191q41 -23 103.5 -46.5t146.5 -23.5q72 0 115 28t43 77q0 33 -32 55.5t-79 42.5l-103 44q-56 24 -103.5 56.5t-79 80.5t-31.5 120q0 92 49 156.5t114 111.5l99 33q-45 33 -67.5 79t-24.5 97q0 61 29.5 116.5t82.5 95.5t128 63.5t163 23.5q115 0 190.5 -23.5 t129.5 -52.5l-76 -194q-41 23 -109.5 41t-136.5 18q-72 0 -111 -29.5t-39 -76.5q0 -35 32 -56.5t79 -39t102.5 -36t102.5 -49t78.5 -78.5t31.5 -122q0 -98 -50 -169t-111 -114l-105 -32q47 -33 69.5 -75t20.5 -108q-2 -141 -112.5 -218t-292.5 -77q-113 0 -199 27.5 t-135 62.5zM414 719q0 -63 46 -98t148 -68q47 25 90 65.5t43 98.5q0 35 -12 57.5t-36.5 41t-63.5 33.5l-90 34q-45 -25 -85 -66t-40 -98z" />
<glyph unicode="&#xa8;" horiz-adv-x="501" d="M369 1333q0 68 37.5 106t97.5 38q59 0 97 -38t38 -106q0 -66 -38 -102.5t-97 -36.5t-97 36.5t-38 102.5zM795 1335q0 66 37.5 104t97.5 38q59 0 97 -38t38 -104t-38 -103.5t-97 -37.5t-97 37.5t-38 103.5z" />
<glyph unicode="&#xa9;" horiz-adv-x="1712" d="M164 594q0 170 57.5 306t156.5 232.5t234.5 148.5t290.5 52q156 0 290 -52t234.5 -148.5t157.5 -232.5t57 -306t-57 -306t-157.5 -232.5t-234.5 -148.5t-290 -52q-170 0 -307 52t-233.5 148.5t-147.5 232.5t-51 306zM365 594q0 -127 39.5 -229.5t112.5 -173t171 -108.5 t215 -38t216.5 38t172 108.5t112.5 173t40 229.5t-40 229.5t-112.5 173t-172 108.5t-216.5 38t-215 -38t-171 -108.5t-112.5 -173t-39.5 -229.5zM559 594q0 186 93 287.5t247 101.5q76 0 134.5 -17.5t111.5 -47.5l-66 -179q-37 18 -66.5 24.5t-58.5 6.5q-59 0 -94 -39 t-35 -137q0 -176 144 -176q39 0 69.5 7t61.5 24l59 -181q-45 -29 -113.5 -46t-146.5 -17q-166 0 -253 104.5t-87 284.5z" />
<glyph unicode="&#xaa;" horiz-adv-x="821" d="M123 944q0 70 30.5 116t82 74.5t119 41t141.5 12.5q25 0 49 -1t49 -3q16 51 -2.5 82.5t-85.5 31.5q-78 0 -132.5 -14t-97.5 -31l-28 127q57 29 147 49.5t207 20.5q123 0 173 -51t50 -127q0 -51 -14 -115.5t-31.5 -132.5t-31 -132.5t-13.5 -113.5h-184l-6 94h-6 q-29 -35 -84.5 -68.5t-141.5 -33.5q-47 0 -82.5 14.5t-59.5 39t-36 56t-12 64.5zM352 991q0 -27 15.5 -44t44.5 -17q61 0 90.5 23.5t50.5 47.5l14 72q-16 2 -33.5 3t-33.5 1q-61 0 -104.5 -18.5t-43.5 -67.5z" />
<glyph unicode="&#xab;" horiz-adv-x="952" d="M61 530l410 471l123 -131l-217 -258l-113 -80l74 -75l123 -252l-172 -127zM442 530l410 471l123 -131l-217 -258l-113 -80l74 -75l123 -252l-172 -127z" />
<glyph unicode="&#xac;" horiz-adv-x="1079" d="M135 614v230h905v-463h-245v233h-660z" />
<glyph unicode="&#xad;" horiz-adv-x="702" d="M115 483l51 213h489l-51 -213h-489z" />
<glyph unicode="&#xae;" horiz-adv-x="1419" d="M240 924q0 137 46 244.5t126 181t185 112.5t222 39q121 0 226.5 -39t183.5 -112.5t123 -181t45 -244.5q0 -139 -46 -247t-125 -181.5t-184.5 -111.5t-222.5 -38q-121 0 -226.5 38t-184 111.5t-123.5 181.5t-45 247zM432 924q0 -98 32 -173t85 -124t122.5 -74t147.5 -25 q82 0 152.5 23.5t122 73t81 124t29.5 175.5q0 98 -30.5 171.5t-83 123t-123 74t-148.5 24.5q-86 0 -157.5 -26.5t-123 -78t-79 -124t-27.5 -164.5zM608 659v531q33 10 92.5 15t112.5 5q86 0 147.5 -35.5t61.5 -123.5q0 -66 -42 -101t-103 -39l57 -28l133 -224h-125l-129 213 l-98 31v-244h-107zM715 965h69q59 0 92 18t33 64q0 72 -118 71q-23 0 -43.5 -1t-32.5 -7v-145z" />
<glyph unicode="&#xaf;" horiz-adv-x="641" d="M602 1159l39 189h631l-39 -189h-631z" />
<glyph unicode="&#xb0;" horiz-adv-x="897" d="M248 1122q0 76 26.5 138.5t72.5 107.5t106.5 69.5t130.5 24.5t132 -22.5t109 -66.5t74 -107.5t27 -143.5t-27 -142t-74 -105.5t-109.5 -66t-131.5 -22.5q-70 0 -130.5 22.5t-106.5 66t-72.5 105.5t-26.5 142zM453 1122q0 -66 38.5 -103.5t94.5 -37.5q55 0 96 38t41 103 q0 66 -41 106t-96 40t-94 -40t-39 -106z" />
<glyph unicode="&#xb1;" horiz-adv-x="1034" d="M119 289v229h903v-229h-903zM119 829v230h332v338h239v-338h332v-230h-332v-217h-239v217h-332z" />
<glyph unicode="&#xb2;" horiz-adv-x="823" d="M914 1448q0 -123 -78 -225.5t-209 -200.5l-101 -51v-8l117 22h207l-45 -207h-608l30 146l137 90t148 112.5t118 122t48 117.5q0 35 -19.5 55.5t-72.5 20.5t-104.5 -17.5t-90.5 -40.5l-28 187q76 43 156.5 62.5t150.5 19.5q117 0 180.5 -53.5t63.5 -151.5z" />
<glyph unicode="&#xb3;" horiz-adv-x="823" d="M465 958q102 0 143 38t41 85q0 41 -29.5 61.5t-127.5 20.5h-84l16 78l176 166l92 49l-114 -12h-222l43 194h551l-28 -127l-209 -190l-72 -35v-10l57 6q72 -2 123.5 -51t49.5 -131q0 -86 -32 -149.5t-87.5 -104.5t-131 -61.5t-163.5 -20.5q-74 0 -138.5 13t-105.5 36 l82 184q82 -39 170 -39z" />
<glyph unicode="&#xb4;" horiz-adv-x="487" d="M659 1159l170 316h256l-12 -62l-272 -254h-142z" />
<glyph unicode="&#xb5;" horiz-adv-x="1110" d="M-70 -410l303 1434h254l-120 -559q-14 -63 -15 -121q0 -72 33 -109.5t104 -37.5q92 0 156 49t105 133l139 645h252l-148 -690q-16 -84 -29.5 -169t-11.5 -165h-184l-35 152h-6q-49 -72 -124 -124.5t-177 -52.5q-78 0 -115 35t-53 88h-10l-8 -235l-58 -273h-252z" />
<glyph unicode="&#x3bc;" horiz-adv-x="1110" d="M-70 -410l303 1434h254l-120 -559q-14 -63 -15 -121q0 -72 33 -109.5t104 -37.5q92 0 156 49t105 133l139 645h252l-148 -690q-16 -84 -29.5 -169t-11.5 -165h-184l-35 152h-6q-49 -72 -124 -124.5t-177 -52.5q-78 0 -115 35t-53 88h-10l-8 -235l-58 -273h-252z" />
<glyph unicode="&#xb6;" horiz-adv-x="1101" d="M127 1020q0 82 26.5 156.5t76 132t119 91.5t155.5 34h151v-1700h-217v868q-68 0 -125 34t-99 92t-64.5 133t-22.5 159zM815 -266v1700h219v-1700h-219z" />
<glyph unicode="&#xb7;" horiz-adv-x="518" d="M150 647q0 72 45 114t118 42q76 0 121 -42t45 -114t-45 -115t-121 -43q-74 0 -118.5 43t-44.5 115z" />
<glyph unicode="&#xb8;" horiz-adv-x="743" d="M483 -418l41 99q104 -10 143.5 12t39.5 51q0 66 -160 61l153 195h162l-67 -88q70 -4 106.5 -43t36.5 -98q0 -53 -23.5 -92t-63.5 -65t-94.5 -38t-115.5 -12q-78 0 -158 18z" />
<glyph unicode="&#xb9;" horiz-adv-x="823" d="M287 983h190l74 336l39 94l-74 -65l-129 -76l-69 149l360 232h166l-143 -670h170l-44 -205h-583z" />
<glyph unicode="&#xba;" horiz-adv-x="817" d="M123 1022q0 111 38 192.5t99.5 136t136 81t148.5 26.5q135 0 205.5 -62.5t70.5 -183.5q0 -117 -34.5 -201.5t-94 -140t-136.5 -82t-159 -26.5q-127 0 -200.5 70.5t-73.5 189.5zM348 1034q-2 -45 20.5 -72.5t65.5 -27.5q68 0 115 70.5t47 181.5q0 100 -88 100 q-35 0 -63.5 -20.5t-51 -54t-35 -80t-10.5 -97.5z" />
<glyph unicode="&#xbb;" horiz-adv-x="952" d="M39 203l221 260l113 84l-72 80l-127 254l176 120l225 -452l-409 -471zM416 203l221 260l113 84l-72 80l-127 254l176 120l225 -452l-409 -471z" />
<glyph unicode="&#xbc;" horiz-adv-x="1720" d="M1266 1464l174 -102l-880 -1391l-177 109zM1579 160h-148l-35 -160h-196l34 160h-401l29 137l542 580h179l-113 -535h147zM1310 518l37 109h-10l-66 -100l-123 -136l-83 -65l108 16h102zM484 1114l41 94l-72 -65l-129 -74l-76 154l365 225h168l-187 -875h-225z" />
<glyph unicode="&#xbd;" horiz-adv-x="1765" d="M1268 1464l174 -102l-880 -1391l-177 109zM1700 670q0 -123 -78 -225.5t-209 -200.5l-101 -51v-8l117 22h207l-45 -207h-608l30 146l137 90t148 112.5t118 122t48 117.5q0 35 -19.5 55.5t-72.5 20.5t-104.5 -17.5t-90.5 -40.5l-28 187q76 43 156.5 62.5t150.5 19.5 q117 0 180.5 -53.5t63.5 -151.5zM484 1114l41 94l-72 -65l-129 -74l-76 154l365 225h168l-187 -875h-225z" />
<glyph unicode="&#xbe;" horiz-adv-x="1769" d="M1317 1464l174 -102l-880 -1391l-177 109zM1631 160h-148l-35 -160h-196l34 160h-401l29 137l542 580h179l-113 -535h147zM1362 518l37 109h-10l-66 -100l-123 -136l-83 -65l108 16h102zM393 753q102 0 143 38t41 85q0 41 -29.5 61.5t-127.5 20.5h-84l16 78l176 166 l92 49l-114 -12h-222l43 194h551l-28 -127l-209 -190l-72 -35v-10l57 6q72 -2 123.5 -51t49.5 -131q0 -86 -32 -149.5t-87.5 -104.5t-131 -61.5t-163.5 -20.5q-74 0 -138.5 13t-105.5 36l82 184q82 -39 170 -39z" />
<glyph unicode="&#xbf;" horiz-adv-x="880" d="M772.01 893.008q0 -71.9951 -44.9971 -113.992q-44.9971 -41.998 -118.992 -41.998q-75.9951 0 -120.993 41.998q-44.9971 41.9971 -44.9971 113.992q0 71.9961 44.9971 114.993q44.998 42.998 120.993 42.998q73.9951 0 118.992 -42.998 q44.9971 -42.9971 44.9971 -114.993zM707.015 -310.918q-83.9951 -50.9971 -182.489 -86.9951t-239.485 -35.998q-171.989 0 -251.984 72.4961q-79.9951 72.4951 -79.9951 195.488q0 108.993 32.498 183.488t83.9941 130.992q51.4971 56.4961 112.993 100.494 q61.4971 43.9971 117.493 92.9941t100.994 110.493q44.9971 61.4961 61.9961 149.491h216.986q-11.999 -110.993 -49.9971 -189.489q-37.9971 -78.4951 -88.4941 -136.991t-106.493 -102.494q-55.9971 -43.9971 -101.994 -84.9941q-45.9971 -40.998 -76.9951 -83.9951 t-30.998 -99.9941q0 -54.9961 31.998 -85.9941t113.993 -30.998q62.9961 0 138.991 27.498t132.992 66.4961z" />
<glyph unicode="&#xc0;" horiz-adv-x="1191" d="M-78 0l797 1444h196l187 -1444h-268l-41 317h-418l-170 -317h-283zM492 543h290l-32 319l2 225h-11l-82 -227zM1008 1540h-185l-268 180l12 62h287z" />
<glyph unicode="&#xc1;" horiz-adv-x="1191" d="M-78 0l797 1444h196l187 -1444h-268l-41 317h-418l-170 -317h-283zM492 543h290l-32 319l2 225h-11l-82 -227zM903 1782h321l-12 -62l-352 -180h-213z" />
<glyph unicode="&#xc2;" horiz-adv-x="1191" d="M-78 0l797 1444h196l187 -1444h-268l-41 317h-418l-170 -317h-283zM492 543h290l-32 319l2 225h-11l-82 -227zM796 1782h179l206 -191l-16 -80h-180l-92 84l-27 70l-55 -68l-138 -86h-192l18 82z" />
<glyph unicode="&#xc3;" horiz-adv-x="1191" d="M-78 0l797 1444h196l187 -1444h-268l-41 317h-418l-170 -317h-283zM492 543h290l-32 319l2 225h-11l-82 -227zM493 1638q78 72 141.5 98.5t118.5 26.5q43 0 83 -11t78 -24.5t74 -24.5t73 -11q31 0 61.5 10t63.5 39l20 -137q-68 -55 -123 -76t-104 -21q-43 0 -81 11.5 l-75 23.5l-73 24q-36 11 -74 11q-37 0 -77 -14.5t-87 -53.5z" />
<glyph unicode="&#xc4;" horiz-adv-x="1191" d="M-78 0l797 1444h196l187 -1444h-268l-41 317h-418l-170 -317h-283zM492 543h290l-32 319l2 225h-11l-82 -227zM504 1634q0 59 41 89t107 30t106.5 -29.5t40.5 -89.5q0 -59 -41 -87.5t-106 -28.5q-66 0 -107 28.5t-41 87.5zM922 1634q0 59 41 89t106 30q66 0 107 -29.5 t41 -89.5q0 -59 -41 -87.5t-107 -28.5t-106.5 28.5t-40.5 87.5z" />
<glyph unicode="&#xc5;" horiz-adv-x="1191" d="M-78 0l783 1419q-66 23 -92.5 64t-26.5 96q0 37 12 70.5t42 59.5t80 40t128 14q143 0 202.5 -49t59.5 -135q0 -66 -42 -114t-148 -60l182 -1405h-268l-41 317h-418l-170 -317h-283zM492 543h290l-32 319l2 225h-11l-82 -227zM758 1579q0 -63 90 -63q51 0 71.5 16t20.5 47 q0 68 -92 68q-90 0 -90 -68z" />
<glyph unicode="&#xc6;" horiz-adv-x="1691" d="M-135 0l1120 1434h272h555l-53 -250h-540l-72 -334h493l-53 -250h-491l-74 -350h551l-53 -250h-535h-283l74 348h-350l-262 -348h-299zM592 575h233l107 510h-12l-91 -192z" />
<glyph unicode="&#xc7;" horiz-adv-x="1099" d="M119 557q0 242 67.5 413t178 280.5t253 160.5t291.5 51q117 0 200 -17.5t130 -39.5l-104 -238q-41 23 -98.5 34t-145.5 11q-104 0 -194.5 -43t-156 -122.5t-103.5 -194.5t-38 -260q0 -174 87 -272.5t233 -98.5q92 0 152.5 19.5t113.5 48.5l4 -230q-133 -86 -321 -88 l-45 -59q70 -4 106.5 -42t36.5 -97q0 -53 -23.5 -92t-63.5 -65t-94.5 -38t-115.5 -12q-78 0 -158 18l41 99q104 -10 143.5 12t39.5 51q0 35 -41 48t-119 11l141 181q-100 20 -175 72.5t-124 128t-73.5 170t-24.5 200.5z" />
<glyph unicode="&#xc8;" horiz-adv-x="1030" d="M41 0l303 1434h266h541l-53 -250h-541l-72 -334h494l-55 -250h-490l-76 -350h551l-51 -250h-551h-266zM928 1540h-185l-268 180l12 62h287z" />
<glyph unicode="&#xc9;" horiz-adv-x="1030" d="M41 0l303 1434h266h541l-53 -250h-541l-72 -334h494l-55 -250h-490l-76 -350h551l-51 -250h-551h-266zM869 1782h321l-12 -62l-352 -180h-213z" />
<glyph unicode="&#xca;" horiz-adv-x="1030" d="M41 0l303 1434h266h541l-53 -250h-541l-72 -334h494l-55 -250h-490l-76 -350h551l-51 -250h-551h-266zM737 1782h179l206 -191l-16 -80h-180l-92 84l-27 70l-55 -68l-138 -86h-192l18 82z" />
<glyph unicode="&#xcb;" horiz-adv-x="1030" d="M41 0l303 1434h266h541l-53 -250h-541l-72 -334h494l-55 -250h-490l-76 -350h551l-51 -250h-551h-266zM430 1634q0 59 41 89t107 30t106.5 -29.5t40.5 -89.5q0 -59 -41 -87.5t-106 -28.5q-66 0 -107 28.5t-41 87.5zM848 1634q0 59 41 89t106 30q66 0 107 -29.5t41 -89.5 q0 -59 -41 -87.5t-107 -28.5t-106.5 28.5t-40.5 87.5z" />
<glyph unicode="&#xcc;" horiz-adv-x="569" d="M72 0l303 1434h264l-303 -1434h-264zM684 1540h-185l-268 180l12 62h287z" />
<glyph unicode="&#xcd;" horiz-adv-x="569" d="M72 0l303 1434h264l-303 -1434h-264zM623 1782h321l-12 -62l-352 -180h-213z" />
<glyph unicode="&#xce;" horiz-adv-x="569" d="M72 0l303 1434h264l-303 -1434h-264zM493 1782h179l206 -191l-16 -80h-180l-92 84l-27 70l-55 -68l-138 -86h-192l18 82z" />
<glyph unicode="&#xcf;" horiz-adv-x="569" d="M72 0l303 1434h264l-303 -1434h-264zM188 1634q0 59 41 89t107 30t106.5 -29.5t40.5 -89.5q0 -59 -41 -87.5t-106 -28.5q-66 0 -107 28.5t-41 87.5zM606 1634q0 59 41 89t106 30q66 0 107 -29.5t41 -89.5q0 -59 -41 -87.5t-107 -28.5t-106.5 28.5t-40.5 87.5z" />
<glyph unicode="&#xd0;" horiz-adv-x="1310" d="M47 657l35 164h174l129 613q43 6 94 10t97.5 6t74.5 2q20 0 53 1t72 1q127 0 229.5 -31.5t175 -97t112.5 -168t40 -244.5q0 -90 -15 -193.5t-52 -207.5t-101.5 -200.5t-162 -170t-233.5 -119t-316 -45.5q-31 0 -59.5 1.5t-45.5 1.5l-89 5l-102 6q-50 3 -75 7l139 659 h-174zM397 236q8 -2 25.5 -3.5t38 -2.5t39.5 -1h28q143 -2 243.5 62.5t163 162t90.5 211t28 212.5q0 164 -69 245.5t-230 81.5q-39 0 -84 -2t-70 -6l-80 -375h271l-35 -164h-271z" />
<glyph unicode="&#xd1;" horiz-adv-x="1292" d="M41 0l307 1444h184l353 -766l63 -223h13l14 223l162 756h252l-308 -1444h-184l-350 760l-68 229h-10l-18 -229l-158 -750h-252zM530 1638q78 72 141.5 98.5t118.5 26.5q43 0 83 -11t78 -24.5t74 -24.5t73 -11q31 0 61.5 10t63.5 39l20 -137q-68 -55 -123 -76t-104 -21 q-43 0 -81 11.5l-75 23.5l-73 24q-36 11 -74 11q-37 0 -77 -14.5t-87 -53.5z" />
<glyph unicode="&#xd2;" horiz-adv-x="1318" d="M119 537q0 190 52 359t148.5 295t232.5 198.5t304 72.5q111 0 200 -32.5t151.5 -101t97 -173t34.5 -248.5q0 -193 -52 -362.5t-147.5 -297.5t-227.5 -202t-291 -74q-242 0 -371 142.5t-131 423.5zM399 545q0 -147 56.5 -235.5t185.5 -88.5q94 0 171 56.5t132 151.5 t85 218t30 256q0 162 -63.5 235.5t-174.5 73.5q-92 0 -169 -53t-133 -144t-88 -213t-32 -257zM1047 1540h-185l-268 180l12 62h287z" />
<glyph unicode="&#xd3;" horiz-adv-x="1318" d="M119 537q0 190 52 359t148.5 295t232.5 198.5t304 72.5q111 0 200 -32.5t151.5 -101t97 -173t34.5 -248.5q0 -193 -52 -362.5t-147.5 -297.5t-227.5 -202t-291 -74q-242 0 -371 142.5t-131 423.5zM399 545q0 -147 56.5 -235.5t185.5 -88.5q94 0 171 56.5t132 151.5 t85 218t30 256q0 162 -63.5 235.5t-174.5 73.5q-92 0 -169 -53t-133 -144t-88 -213t-32 -257zM1006 1782h321l-12 -62l-352 -180h-213z" />
<glyph unicode="&#xd4;" horiz-adv-x="1318" d="M119 537q0 190 52 359t148.5 295t232.5 198.5t304 72.5q111 0 200 -32.5t151.5 -101t97 -173t34.5 -248.5q0 -193 -52 -362.5t-147.5 -297.5t-227.5 -202t-291 -74q-242 0 -371 142.5t-131 423.5zM399 545q0 -147 56.5 -235.5t185.5 -88.5q94 0 171 56.5t132 151.5 t85 218t30 256q0 162 -63.5 235.5t-174.5 73.5q-92 0 -169 -53t-133 -144t-88 -213t-32 -257zM868 1782h179l206 -191l-16 -80h-180l-92 84l-27 70l-55 -68l-138 -86h-192l18 82z" />
<glyph unicode="&#xd5;" horiz-adv-x="1318" d="M119 537q0 190 52 359t148.5 295t232.5 198.5t304 72.5q111 0 200 -32.5t151.5 -101t97 -173t34.5 -248.5q0 -193 -52 -362.5t-147.5 -297.5t-227.5 -202t-291 -74q-242 0 -371 142.5t-131 423.5zM399 545q0 -147 56.5 -235.5t185.5 -88.5q94 0 171 56.5t132 151.5 t85 218t30 256q0 162 -63.5 235.5t-174.5 73.5q-92 0 -169 -53t-133 -144t-88 -213t-32 -257zM548 1638q78 72 141.5 98.5t118.5 26.5q43 0 83 -11t78 -24.5t74 -24.5t73 -11q31 0 61.5 10t63.5 39l20 -137q-68 -55 -123 -76t-104 -21q-43 0 -81 11.5l-75 23.5l-73 24 q-36 11 -74 11q-37 0 -77 -14.5t-87 -53.5z" />
<glyph unicode="&#xd6;" horiz-adv-x="1318" d="M119 537q0 190 52 359t148.5 295t232.5 198.5t304 72.5q111 0 200 -32.5t151.5 -101t97 -173t34.5 -248.5q0 -193 -52 -362.5t-147.5 -297.5t-227.5 -202t-291 -74q-242 0 -371 142.5t-131 423.5zM399 545q0 -147 56.5 -235.5t185.5 -88.5q94 0 171 56.5t132 151.5 t85 218t30 256q0 162 -63.5 235.5t-174.5 73.5q-92 0 -169 -53t-133 -144t-88 -213t-32 -257zM553 1634q0 59 41 89t107 30t106.5 -29.5t40.5 -89.5q0 -59 -41 -87.5t-106 -28.5q-66 0 -107 28.5t-41 87.5zM971 1634q0 59 41 89t106 30q66 0 107 -29.5t41 -89.5 q0 -59 -41 -87.5t-107 -28.5t-106.5 28.5t-40.5 87.5z" />
<glyph unicode="&#xd7;" horiz-adv-x="1034" d="M135 426l268 268l-264 260l160 166l268 -266l267 266l161 -166l-266 -260l266 -264l-161 -168l-267 268l-270 -270z" />
<glyph unicode="&#xd8;" horiz-adv-x="1318" d="M117 121l69 86q-33 66 -50 147.5t-17 182.5q0 190 52 359t148.5 295t232.5 198.5t304 72.5q176 0 291 -82l55 66l148 -127l-76 -92q31 -61 48 -141t17 -179q0 -193 -52 -362.5t-147.5 -297.5t-227.5 -202t-291 -74q-184 0 -306 84l-55 -65zM399 506q0 -18 4 -37l568 694 q-59 49 -150 49q-92 0 -169 -53t-133 -144t-88 -213t-32 -257v-39zM489 270q57 -49 152 -49q94 0 171 56.5t132 151.5t85 218t30 256v30q0 13 -2 28z" />
<glyph unicode="&#xd9;" horiz-adv-x="1232" d="M129 356q0 41 5 84t16 90l192 904h264l-188 -902q-16 -78 -17 -126q0 -98 51.5 -139.5t149.5 -41.5q123 0 190.5 72t102.5 231l192 906h250l-194 -926q-31 -147 -80 -248.5t-119 -165t-164 -91.5t-217 -28q-119 0 -200.5 28t-134 79t-76 120.5t-23.5 153.5zM1004 1540 h-185l-268 180l12 62h287z" />
<glyph unicode="&#xda;" horiz-adv-x="1232" d="M129 356q0 41 5 84t16 90l192 904h264l-188 -902q-16 -78 -17 -126q0 -98 51.5 -139.5t149.5 -41.5q123 0 190.5 72t102.5 231l192 906h250l-194 -926q-31 -147 -80 -248.5t-119 -165t-164 -91.5t-217 -28q-119 0 -200.5 28t-134 79t-76 120.5t-23.5 153.5zM998 1782h321 l-12 -62l-352 -180h-213z" />
<glyph unicode="&#xdb;" horiz-adv-x="1232" d="M129 356q0 41 5 84t16 90l192 904h264l-188 -902q-16 -78 -17 -126q0 -98 51.5 -139.5t149.5 -41.5q123 0 190.5 72t102.5 231l192 906h250l-194 -926q-31 -147 -80 -248.5t-119 -165t-164 -91.5t-217 -28q-119 0 -200.5 28t-134 79t-76 120.5t-23.5 153.5zM839 1782h179 l206 -191l-16 -80h-180l-92 84l-27 70l-55 -68l-138 -86h-192l18 82z" />
<glyph unicode="&#xdc;" horiz-adv-x="1232" d="M129 356q0 41 5 84t16 90l192 904h264l-188 -902q-16 -78 -17 -126q0 -98 51.5 -139.5t149.5 -41.5q123 0 190.5 72t102.5 231l192 906h250l-194 -926q-31 -147 -80 -248.5t-119 -165t-164 -91.5t-217 -28q-119 0 -200.5 28t-134 79t-76 120.5t-23.5 153.5zM524 1634 q0 59 41 89t107 30t106.5 -29.5t40.5 -89.5q0 -59 -41 -87.5t-106 -28.5q-66 0 -107 28.5t-41 87.5zM942 1634q0 59 41 89t106 30q66 0 107 -29.5t41 -89.5q0 -59 -41 -87.5t-107 -28.5t-106.5 28.5t-40.5 87.5z" />
<glyph unicode="&#xdd;" horiz-adv-x="1165" d="M217 1434h295l133 -539l-4 -152h8l64 156l358 535h305l-637 -899l-112 -535h-265l111 532zM924 1782h321l-12 -62l-352 -180h-213z" />
<glyph unicode="&#xde;" horiz-adv-x="1126" d="M41 0l305 1434h264l-30 -146q27 2 53 2h53q104 0 193.5 -23.5t156 -72.5t103.5 -126t37 -183q0 -160 -55.5 -267.5t-146.5 -174t-208 -94t-238 -27.5h-31q-22 0 -45 1l-45 2q-22 1 -32 3l-68 -328h-266zM428 573q8 -2 22.5 -4t32 -3t32.5 -2t24 -1q70 0 134 14.5 t113.5 48t79 89t29.5 135.5q0 61 -19.5 99t-52 59.5t-77 30t-93.5 8.5q-37 0 -70.5 -3.5t-56.5 -7.5l-49 -231z" />
<glyph unicode="&#xdf;" horiz-adv-x="1245" d="M-264 -369l69 187q35 -14 70 -18.5t88 -4.5q66 0 101.5 51.5t52.5 153.5l145 815h-168l41 209h166l12 57q25 117 72 188.5t112.5 111.5t147.5 54.5t178 14.5q104 0 176 -22.5t117 -60.5t65.5 -88t20.5 -108q0 -72 -23.5 -123t-58.5 -87.5t-77 -63.5t-76.5 -51.5t-58 -51 t-23.5 -61.5t23.5 -57.5t58.5 -40.5l76 -39q42 -20 77 -52t58.5 -80t23.5 -122q0 -80 -36 -148.5t-98 -117.5t-147 -77t-184 -28q-84 0 -166 23.5t-133 58.5l115 199q43 -27 91 -47.5t118 -20.5q31 0 61.5 10.5t55 29t40 46t15.5 62.5q0 39 -23.5 64.5t-59.5 46t-78 42 t-78 51t-59.5 72.5t-23.5 109q0 59 23.5 103t59.5 77t77 58l77 51q36 25 59.5 52t23.5 64q0 47 -37 76t-107 29q-98 0 -157.5 -53.5t-81.5 -174.5l-182 -999q-18 -104 -43 -184t-67 -133.5t-103.5 -81t-151.5 -27.5q-74 0 -144.5 11t-121.5 46z" />
<glyph unicode="&#xe0;" horiz-adv-x="1030" d="M68 295q0 150 37.5 287t117.5 241.5t202 167t290 62.5q72 0 156.5 -13.5t164.5 -35.5l-127 -594q-16 -78 -23 -158t-7 -152q0 -29 1 -54.5t3 -47.5h-187l-28 176h-9q-23 -37 -58.5 -72.5t-78.5 -65.5t-91 -47.5t-99 -17.5q-135 0 -199.5 88.5t-64.5 235.5zM328 344 q0 -66 21.5 -114t78.5 -48q37 0 69.5 15.5t60.5 40t49.5 53t37.5 53.5l103 477q-23 10 -52.5 15.5t-58.5 5.5q-74 0 -131 -44t-97 -115t-60.5 -160t-20.5 -179zM467 1413l14 62h264l50 -316h-142z" />
<glyph unicode="&#xe1;" horiz-adv-x="1030" d="M68 295q0 150 37.5 287t117.5 241.5t202 167t290 62.5q72 0 156.5 -13.5t164.5 -35.5l-127 -594q-16 -78 -23 -158t-7 -152q0 -29 1 -54.5t3 -47.5h-187l-28 176h-9q-23 -37 -58.5 -72.5t-78.5 -65.5t-91 -47.5t-99 -17.5q-135 0 -199.5 88.5t-64.5 235.5zM328 344 q0 -66 21.5 -114t78.5 -48q37 0 69.5 15.5t60.5 40t49.5 53t37.5 53.5l103 477q-23 10 -52.5 15.5t-58.5 5.5q-74 0 -131 -44t-97 -115t-60.5 -160t-20.5 -179zM612 1159l170 316h256l-12 -62l-272 -254h-142z" />
<glyph unicode="&#xe2;" horiz-adv-x="1030" d="M68 295q0 150 37.5 287t117.5 241.5t202 167t290 62.5q72 0 156.5 -13.5t164.5 -35.5l-127 -594q-16 -78 -23 -158t-7 -152q0 -29 1 -54.5t3 -47.5h-187l-28 176h-9q-23 -37 -58.5 -72.5t-78.5 -65.5t-91 -47.5t-99 -17.5q-135 0 -199.5 88.5t-64.5 235.5zM328 344 q0 -66 21.5 -114t78.5 -48q37 0 69.5 15.5t60.5 40t49.5 53t37.5 53.5l103 477q-23 10 -52.5 15.5t-58.5 5.5q-74 0 -131 -44t-97 -115t-60.5 -160t-20.5 -179zM389 1126l320 373h168l137 -373h-197l-49 136l-8 100l-55 -100l-117 -136h-199z" />
<glyph unicode="&#xe3;" horiz-adv-x="1030" d="M68 295q0 150 37.5 287t117.5 241.5t202 167t290 62.5q72 0 156.5 -13.5t164.5 -35.5l-127 -594q-16 -78 -23 -158t-7 -152q0 -29 1 -54.5t3 -47.5h-187l-28 176h-9q-23 -37 -58.5 -72.5t-78.5 -65.5t-91 -47.5t-99 -17.5q-135 0 -199.5 88.5t-64.5 235.5zM328 344 q0 -66 21.5 -114t78.5 -48q37 0 69.5 15.5t60.5 40t49.5 53t37.5 53.5l103 477q-23 10 -52.5 15.5t-58.5 5.5q-74 0 -131 -44t-97 -115t-60.5 -160t-20.5 -179zM404 1348q72 76 126 104.5t99 28.5q37 0 68.5 -14.5t63.5 -31t63.5 -30.5t68.5 -14q29 0 62.5 12t74.5 43 l9 -143q-66 -66 -117 -91.5t-94 -25.5q-37 0 -70 13t-65.5 29.5t-65.5 30t-70 13.5q-31 0 -67.5 -12.5t-77.5 -45.5z" />
<glyph unicode="&#xe4;" horiz-adv-x="1030" d="M68 295q0 150 37.5 287t117.5 241.5t202 167t290 62.5q72 0 156.5 -13.5t164.5 -35.5l-127 -594q-16 -78 -23 -158t-7 -152q0 -29 1 -54.5t3 -47.5h-187l-28 176h-9q-23 -37 -58.5 -72.5t-78.5 -65.5t-91 -47.5t-99 -17.5q-135 0 -199.5 88.5t-64.5 235.5zM328 344 q0 -66 21.5 -114t78.5 -48q37 0 69.5 15.5t60.5 40t49.5 53t37.5 53.5l103 477q-23 10 -52.5 15.5t-58.5 5.5q-74 0 -131 -44t-97 -115t-60.5 -160t-20.5 -179zM351 1333q0 68 37.5 106t97.5 38q59 0 97 -38t38 -106q0 -66 -38 -102.5t-97 -36.5t-97 36.5t-38 102.5z M777 1335q0 66 37.5 104t97.5 38q59 0 97 -38t38 -104t-38 -103.5t-97 -37.5t-97 37.5t-38 103.5z" />
<glyph unicode="&#xe5;" horiz-adv-x="1030" d="M68 295q0 150 37.5 287t117.5 241.5t202 167t290 62.5q72 0 156.5 -13.5t164.5 -35.5l-127 -594q-16 -78 -23 -158t-7 -152q0 -29 1 -54.5t3 -47.5h-187l-28 176h-9q-23 -37 -58.5 -72.5t-78.5 -65.5t-91 -47.5t-99 -17.5q-135 0 -199.5 88.5t-64.5 235.5zM328 344 q0 -66 21.5 -114t78.5 -48q37 0 69.5 15.5t60.5 40t49.5 53t37.5 53.5l103 477q-23 10 -52.5 15.5t-58.5 5.5q-74 0 -131 -44t-97 -115t-60.5 -160t-20.5 -179zM522 1325q0 86 58.5 141.5t169.5 55.5q104 0 165.5 -50.5t61.5 -146.5q0 -80 -60.5 -136t-166.5 -56 q-109 0 -168.5 52t-59.5 140zM670 1325q0 -33 23.5 -50.5t56.5 -17.5q35 0 57.5 16.5t22.5 51.5t-24 52.5t-56 17.5q-33 0 -56.5 -16.5t-23.5 -53.5z" />
<glyph unicode="&#xe6;" horiz-adv-x="1523" d="M35 242q0 100 45 171.5t123 116.5t180 66.5t219 21.5h34q17 0 34 -2q23 78 22 121q0 49 -30.5 73t-104.5 24q-68 0 -143.5 -16.5t-141.5 -43.5l-36 191q84 41 193.5 60t211.5 19q94 0 159.5 -29.5t92.5 -92.5q59 63 148 97t182 34q86 0 146.5 -19.5t98 -54.5t55 -81 t17.5 -101q0 -115 -54 -184.5t-146.5 -109.5t-213 -54.5t-252.5 -14.5q-2 -16 -3 -31.5t-1 -29.5q0 -92 47.5 -141.5t155.5 -49.5q78 0 146.5 21.5t109.5 46.5l47 -176q-70 -49 -175 -76t-210 -27q-135 0 -218 49.5t-118 137.5h-10q-66 -74 -151.5 -124t-202.5 -50 q-68 0 -116 21.5t-78.5 57t-46 83t-15.5 96.5zM295 303q0 -55 28.5 -79.5t75.5 -24.5q37 0 71 15t62.5 36.5t51 45t37.5 42.5l18 119q-16 2 -34 2h-34q-117 0 -196.5 -38t-79.5 -118zM915 598q66 0 133.5 3t123 18.5t90 47t34.5 87.5q0 35 -24.5 64.5t-91.5 29.5 q-109 0 -171.5 -73t-93.5 -177z" />
<glyph unicode="&#xe7;" horiz-adv-x="843" d="M70 324q0 172 49 307t130 228t184.5 143.5t211.5 50.5q96 0 152.5 -18.5t101.5 -41.5l-94 -200q-39 23 -81 30.5t-91 7.5q-55 0 -107.5 -35.5t-94.5 -94t-66.5 -136.5t-24.5 -159q0 -104 45 -158.5t119 -54.5q61 0 113.5 19t93.5 44l47 -172q-53 -39 -119 -67.5 t-135 -39.5l-49 -65q70 -4 106.5 -42t36.5 -97q0 -53 -23.5 -92t-63.5 -65t-94.5 -38t-115.5 -12q-78 0 -158 18l41 99q104 -10 143.5 12t39.5 51q0 35 -41 48t-119 11l135 175q-74 12 -125 43.5t-84 77.5t-48 104t-15 119z" />
<glyph unicode="&#xe8;" horiz-adv-x="954" d="M70 340q0 164 51 296t134 224t187.5 142.5t208.5 50.5q84 0 144.5 -21.5t99.5 -59.5t57.5 -87t18.5 -105q0 -84 -43 -147.5t-120 -105.5t-185.5 -63.5t-237.5 -21.5q-16 0 -30.5 1t-30.5 1q-4 -25 -6.5 -44t-2.5 -35q0 -92 48.5 -137.5t136.5 -45.5q90 0 161.5 27 t108.5 53l53 -164q-63 -53 -163.5 -90t-233.5 -37q-166 0 -261 97.5t-95 271.5zM360 604q57 0 122 4t120 19.5t92 45t37 81.5q0 31 -22.5 62.5t-94.5 31.5q-90 0 -156.5 -70t-97.5 -174zM426 1413l14 62h264l50 -316h-142z" />
<glyph unicode="&#xe9;" horiz-adv-x="954" d="M70 340q0 164 51 296t134 224t187.5 142.5t208.5 50.5q84 0 144.5 -21.5t99.5 -59.5t57.5 -87t18.5 -105q0 -84 -43 -147.5t-120 -105.5t-185.5 -63.5t-237.5 -21.5q-16 0 -30.5 1t-30.5 1q-4 -25 -6.5 -44t-2.5 -35q0 -92 48.5 -137.5t136.5 -45.5q90 0 161.5 27 t108.5 53l53 -164q-63 -53 -163.5 -90t-233.5 -37q-166 0 -261 97.5t-95 271.5zM360 604q57 0 122 4t120 19.5t92 45t37 81.5q0 31 -22.5 62.5t-94.5 31.5q-90 0 -156.5 -70t-97.5 -174zM579 1159l170 316h256l-12 -62l-272 -254h-142z" />
<glyph unicode="&#xea;" horiz-adv-x="954" d="M70 340q0 164 51 296t134 224t187.5 142.5t208.5 50.5q84 0 144.5 -21.5t99.5 -59.5t57.5 -87t18.5 -105q0 -84 -43 -147.5t-120 -105.5t-185.5 -63.5t-237.5 -21.5q-16 0 -30.5 1t-30.5 1q-4 -25 -6.5 -44t-2.5 -35q0 -92 48.5 -137.5t136.5 -45.5q90 0 161.5 27 t108.5 53l53 -164q-63 -53 -163.5 -90t-233.5 -37q-166 0 -261 97.5t-95 271.5zM360 604q57 0 122 4t120 19.5t92 45t37 81.5q0 31 -22.5 62.5t-94.5 31.5q-90 0 -156.5 -70t-97.5 -174zM342 1126l320 373h168l137 -373h-197l-49 136l-8 100l-55 -100l-117 -136h-199z" />
<glyph unicode="&#xeb;" horiz-adv-x="954" d="M70 340q0 164 51 296t134 224t187.5 142.5t208.5 50.5q84 0 144.5 -21.5t99.5 -59.5t57.5 -87t18.5 -105q0 -84 -43 -147.5t-120 -105.5t-185.5 -63.5t-237.5 -21.5q-16 0 -30.5 1t-30.5 1q-4 -25 -6.5 -44t-2.5 -35q0 -92 48.5 -137.5t136.5 -45.5q90 0 161.5 27 t108.5 53l53 -164q-63 -53 -163.5 -90t-233.5 -37q-166 0 -261 97.5t-95 271.5zM360 604q57 0 122 4t120 19.5t92 45t37 81.5q0 31 -22.5 62.5t-94.5 31.5q-90 0 -156.5 -70t-97.5 -174zM336 1333q0 68 37.5 106t97.5 38q59 0 97 -38t38 -106q0 -66 -38 -102.5t-97 -36.5 t-97 36.5t-38 102.5zM762 1335q0 66 37.5 104t97.5 38q59 0 97 -38t38 -104t-38 -103.5t-97 -37.5t-97 37.5t-38 103.5z" />
<glyph unicode="&#xec;" horiz-adv-x="524" d="M272 1024h252l-217 -1024h-252zM215 1413l14 62h264l50 -316h-142z" />
<glyph unicode="&#xed;" horiz-adv-x="524" d="M272 1024h252l-217 -1024h-252zM317 1159l170 316h256l-12 -62l-272 -254h-142z" />
<glyph unicode="&#xee;" horiz-adv-x="524" d="M272 1024h252l-217 -1024h-252zM98 1126l320 373h168l137 -373h-197l-49 136l-8 100l-55 -100l-117 -136h-199z" />
<glyph unicode="&#xef;" horiz-adv-x="524" d="M272 1024h252l-217 -1024h-252zM113 1333q0 68 37.5 106t97.5 38q59 0 97 -38t38 -106q0 -66 -38 -102.5t-97 -36.5t-97 36.5t-38 102.5zM539 1335q0 66 37.5 104t97.5 38q59 0 97 -38t38 -104t-38 -103.5t-97 -37.5t-97 37.5t-38 103.5z" />
<glyph unicode="&#xf0;" horiz-adv-x="1040" d="M76 352q0 143 42 266t112.5 213.5t163.5 140.5t198 50q141 0 207 -78q4 66 -8.5 120t-34.5 101l-154 -63l-65 110l143 60q-37 37 -81 63.5t-91 42.5l199 84q92 -35 167 -110l150 61l57 -110l-131 -56q35 -63 55.5 -141t20.5 -170q0 -252 -48 -434.5t-130 -300 t-189.5 -174t-226.5 -56.5q-164 0 -260 97.5t-96 283.5zM336 362q0 -86 33.5 -133t93.5 -47q80 0 136 57.5t91 140.5t51.5 177t14.5 166q-16 41 -54 65.5t-92 24.5q-61 0 -111 -39t-86 -102.5t-56.5 -144.5t-20.5 -165z" />
<glyph unicode="&#xf1;" horiz-adv-x="1067" d="M29 0l217 1024h190l-10 -180h8q27 33 63 69.5t83 67.5t105.5 51.5t131.5 20.5q92 0 147.5 -50.5t55.5 -166.5q0 -31 -3 -66t-13 -76l-148 -694h-252l136 635q12 57 12 100q0 45 -18.5 70.5t-67.5 25.5q-37 0 -74 -18t-69.5 -49t-61.5 -69t-49 -77l-131 -618h-252z M416 1348q72 76 126 104.5t99 28.5q37 0 68.5 -14.5t63.5 -31t63.5 -30.5t68.5 -14q29 0 62.5 12t74.5 43l9 -143q-66 -66 -117 -91.5t-94 -25.5q-37 0 -70 13t-65.5 29.5t-65.5 30t-70 13.5q-31 0 -67.5 -12.5t-77.5 -45.5z" />
<glyph unicode="&#xf2;" horiz-adv-x="1015" d="M70 332q0 162 46 295t122.5 227t178 146.5t212.5 52.5q98 0 165.5 -31t109.5 -82t60.5 -116.5t18.5 -135.5q0 -160 -45 -292t-121 -226t-176 -146.5t-211 -52.5q-96 0 -163.5 32t-111.5 83t-64.5 115.5t-20.5 130.5zM330 367q0 -184 133 -185q49 0 96 43t84 113t58.5 158 t21.5 176q0 82 -27.5 126t-103.5 44q-49 0 -96 -41t-84 -107.5t-59.5 -152.5t-22.5 -174zM442 1413l14 62h264l50 -316h-142z" />
<glyph unicode="&#xf3;" horiz-adv-x="1015" d="M70 332q0 162 46 295t122.5 227t178 146.5t212.5 52.5q98 0 165.5 -31t109.5 -82t60.5 -116.5t18.5 -135.5q0 -160 -45 -292t-121 -226t-176 -146.5t-211 -52.5q-96 0 -163.5 32t-111.5 83t-64.5 115.5t-20.5 130.5zM330 367q0 -184 133 -185q49 0 96 43t84 113t58.5 158 t21.5 176q0 82 -27.5 126t-103.5 44q-49 0 -96 -41t-84 -107.5t-59.5 -152.5t-22.5 -174zM575 1159l170 316h256l-12 -62l-272 -254h-142z" />
<glyph unicode="&#xf4;" horiz-adv-x="1015" d="M70 332q0 162 46 295t122.5 227t178 146.5t212.5 52.5q98 0 165.5 -31t109.5 -82t60.5 -116.5t18.5 -135.5q0 -160 -45 -292t-121 -226t-176 -146.5t-211 -52.5q-96 0 -163.5 32t-111.5 83t-64.5 115.5t-20.5 130.5zM330 367q0 -184 133 -185q49 0 96 43t84 113t58.5 158 t21.5 176q0 82 -27.5 126t-103.5 44q-49 0 -96 -41t-84 -107.5t-59.5 -152.5t-22.5 -174zM335 1126l320 373h168l137 -373h-197l-49 136l-8 100l-55 -100l-117 -136h-199z" />
<glyph unicode="&#xf5;" horiz-adv-x="1015" d="M70 332q0 162 46 295t122.5 227t178 146.5t212.5 52.5q98 0 165.5 -31t109.5 -82t60.5 -116.5t18.5 -135.5q0 -160 -45 -292t-121 -226t-176 -146.5t-211 -52.5q-96 0 -163.5 32t-111.5 83t-64.5 115.5t-20.5 130.5zM330 367q0 -184 133 -185q49 0 96 43t84 113t58.5 158 t21.5 176q0 82 -27.5 126t-103.5 44q-49 0 -96 -41t-84 -107.5t-59.5 -152.5t-22.5 -174zM367 1348q72 76 126 104.5t99 28.5q37 0 68.5 -14.5t63.5 -31t63.5 -30.5t68.5 -14q29 0 62.5 12t74.5 43l9 -143q-66 -66 -117 -91.5t-94 -25.5q-37 0 -70 13t-65.5 29.5t-65.5 30 t-70 13.5q-31 0 -67.5 -12.5t-77.5 -45.5z" />
<glyph unicode="&#xf6;" horiz-adv-x="1015" d="M70 332q0 162 46 295t122.5 227t178 146.5t212.5 52.5q98 0 165.5 -31t109.5 -82t60.5 -116.5t18.5 -135.5q0 -160 -45 -292t-121 -226t-176 -146.5t-211 -52.5q-96 0 -163.5 32t-111.5 83t-64.5 115.5t-20.5 130.5zM330 367q0 -184 133 -185q49 0 96 43t84 113t58.5 158 t21.5 176q0 82 -27.5 126t-103.5 44q-49 0 -96 -41t-84 -107.5t-59.5 -152.5t-22.5 -174zM338 1333q0 68 37.5 106t97.5 38q59 0 97 -38t38 -106q0 -66 -38 -102.5t-97 -36.5t-97 36.5t-38 102.5zM764 1335q0 66 37.5 104t97.5 38q59 0 97 -38t38 -104t-38 -103.5t-97 -37.5 t-97 37.5t-38 103.5z" />
<glyph unicode="&#xf7;" horiz-adv-x="1034" d="M119 578v229h905v-229h-905zM406 297q0 72 45 114t118 42q76 0 121 -42t45 -114t-45 -115t-121 -43q-74 0 -118.5 43t-44.5 115zM406 1090q0 72 45 113.5t118 41.5q76 0 121 -42t45 -113q0 -72 -45 -115t-121 -43q-74 0 -118.5 43t-44.5 115z" />
<glyph unicode="&#xf8;" horiz-adv-x="1015" d="M0 74l96 110q-27 68 -26 148q0 162 46 295t122.5 227t178 146.5t212.5 52.5q66 0 117 -14.5t90 -39.5l69 78l131 -121l-86 -96q33 -78 33 -172q0 -160 -45 -292t-121 -226t-176 -146.5t-211 -52.5q-70 0 -124 17.5t-95 46.5l-76 -84zM330 397l360 406q-33 39 -98 39 q-47 0 -92 -38t-81 -99.5t-60.5 -141.5t-28.5 -166zM360 233q33 -51 103 -51q47 0 92 40t81 104.5t59.5 146.5t27.5 166z" />
<glyph unicode="&#xf9;" horiz-adv-x="1048" d="M80 197q0 76 20 165l142 662h252l-134 -633q-12 -61 -12 -102t16.5 -63.5t57.5 -22.5q35 0 70.5 17.5t68.5 45t60.5 61t46.5 66.5l131 631h252l-129 -614q-10 -41 -17.5 -96.5t-13.5 -114t-8 -111.5q-1 -27 -1 -49t1 -39h-203l-10 184h-8q-29 -39 -67 -76.5t-84 -68.5 t-100.5 -49.5t-115.5 -18.5q-96 0 -155.5 48.5t-59.5 177.5zM436 1413l14 62h264l50 -316h-142z" />
<glyph unicode="&#xfa;" horiz-adv-x="1048" d="M80 197q0 76 20 165l142 662h252l-134 -633q-12 -61 -12 -102t16.5 -63.5t57.5 -22.5q35 0 70.5 17.5t68.5 45t60.5 61t46.5 66.5l131 631h252l-129 -614q-10 -41 -17.5 -96.5t-13.5 -114t-8 -111.5q-1 -27 -1 -49t1 -39h-203l-10 184h-8q-29 -39 -67 -76.5t-84 -68.5 t-100.5 -49.5t-115.5 -18.5q-96 0 -155.5 48.5t-59.5 177.5zM550 1159l170 316h256l-12 -62l-272 -254h-142z" />
<glyph unicode="&#xfb;" horiz-adv-x="1048" d="M80 197q0 76 20 165l142 662h252l-134 -633q-12 -61 -12 -102t16.5 -63.5t57.5 -22.5q35 0 70.5 17.5t68.5 45t60.5 61t46.5 66.5l131 631h252l-129 -614q-10 -41 -17.5 -96.5t-13.5 -114t-8 -111.5q-1 -27 -1 -49t1 -39h-203l-10 184h-8q-29 -39 -67 -76.5t-84 -68.5 t-100.5 -49.5t-115.5 -18.5q-96 0 -155.5 48.5t-59.5 177.5zM348 1126l320 373h168l137 -373h-197l-49 136l-8 100l-55 -100l-117 -136h-199z" />
<glyph unicode="&#xfc;" horiz-adv-x="1048" d="M80 197q0 76 20 165l142 662h252l-134 -633q-12 -61 -12 -102t16.5 -63.5t57.5 -22.5q35 0 70.5 17.5t68.5 45t60.5 61t46.5 66.5l131 631h252l-129 -614q-10 -41 -17.5 -96.5t-13.5 -114t-8 -111.5q-1 -27 -1 -49t1 -39h-203l-10 184h-8q-29 -39 -67 -76.5t-84 -68.5 t-100.5 -49.5t-115.5 -18.5q-96 0 -155.5 48.5t-59.5 177.5zM355 1333q0 68 37.5 106t97.5 38q59 0 97 -38t38 -106q0 -66 -38 -102.5t-97 -36.5t-97 36.5t-38 102.5zM781 1335q0 66 37.5 104t97.5 38q59 0 97 -38t38 -104t-38 -103.5t-97 -37.5t-97 37.5t-38 103.5z" />
<glyph unicode="&#xfd;" horiz-adv-x="925" d="M-35 -389l68 201q12 -6 25.5 -8.5t25.5 -2.5q49 0 100.5 47.5t102.5 151.5l-193 1024h289l59 -575l2 -160h13l55 162l279 573h268l-492 -920l-115 -210q-54 -96 -109.5 -166t-115 -109t-127.5 -39q-90 0 -135 31zM507 1159l170 316h256l-12 -62l-272 -254h-142z" />
<glyph unicode="&#xfe;" horiz-adv-x="1036" d="M-53 -410l391 1844h252l-127 -549h8q25 33 55.5 63.5t69.5 53t86 37t106 14.5q104 0 168 -72t64 -225q0 -174 -46 -318.5t-123 -248t-180.5 -161t-215.5 -57.5q-53 0 -100.5 10.5t-69.5 26.5l-88 -418h-250zM328 217q51 -35 114 -35t119.5 43t98.5 115t67 167t25 200 q0 59 -23.5 97t-71.5 38q-37 0 -71.5 -18.5t-65.5 -46t-55.5 -62.5t-42.5 -68z" />
<glyph unicode="&#xff;" horiz-adv-x="925" d="M-35 -389l68 201q12 -6 25.5 -8.5t25.5 -2.5q49 0 100.5 47.5t102.5 151.5l-193 1024h289l59 -575l2 -160h13l55 162l279 573h268l-492 -920l-115 -210q-54 -96 -109.5 -166t-115 -109t-127.5 -39q-90 0 -135 31zM269 1333q0 68 37.5 106t97.5 38q59 0 97 -38t38 -106 q0 -66 -38 -102.5t-97 -36.5t-97 36.5t-38 102.5zM695 1335q0 66 37.5 104t97.5 38q59 0 97 -38t38 -104t-38 -103.5t-97 -37.5t-97 37.5t-38 103.5z" />
<glyph unicode="&#x131;" horiz-adv-x="524" d="M272 1024h252l-217 -1024h-252z" />
<glyph unicode="&#x152;" horiz-adv-x="1796" d="M119 537q0 215 55 387t155.5 291.5t238 183t300.5 63.5q78 0 134.5 -8t107.5 -20h807l-53 -250h-541l-72 -334h494l-53 -250h-492l-74 -350h549l-51 -250h-817q-41 -14 -95.5 -21.5t-111.5 -7.5q-88 0 -174 27t-154.5 91.5t-110.5 174t-42 273.5zM399 545 q0 -53 10.5 -109.5t38 -104.5t77.5 -79t130 -31q57 0 101.5 7.5t105.5 31.5l191 901q-37 25 -87.5 38t-131.5 13q-96 0 -175 -49t-137.5 -137t-90.5 -211t-32 -270z" />
<glyph unicode="&#x153;" horiz-adv-x="1574" d="M70 332q0 162 46 295t123.5 227t179 146.5t212.5 52.5t181.5 -45t109.5 -123q61 72 148 120t202 48q84 0 144.5 -21.5t99 -59.5t57 -87t18.5 -105q0 -84 -43 -147.5t-119.5 -105.5t-185 -63.5t-237.5 -21.5q-16 0 -30.5 1t-31.5 1q-4 -25 -6 -44t-2 -35q0 -92 48 -137.5 t136 -45.5q90 0 162 27t109 53l53 -164q-63 -53 -163.5 -90t-233.5 -37q-59 0 -106.5 13.5t-82.5 37t-59.5 52t-38.5 59.5q-51 -70 -139.5 -116t-192.5 -46q-96 0 -163.5 32t-110.5 83t-63.5 115.5t-20.5 130.5zM330 367q0 -184 133 -185q49 0 96 43t84 113t58.5 158 t21.5 176q0 82 -27.5 126t-103.5 44q-49 0 -96 -41t-84 -107.5t-59.5 -152.5t-22.5 -174zM981 604q57 0 121.5 4t120 19.5t92.5 45t37 81.5q0 31 -22.5 62.5t-94.5 31.5q-90 0 -156.5 -70t-97.5 -174z" />
<glyph unicode="&#x178;" horiz-adv-x="1165" d="M217 1434h295l133 -539l-4 -152h8l64 156l358 535h305l-637 -899l-112 -535h-265l111 532zM491 1634q0 59 41 89t107 30t106.5 -29.5t40.5 -89.5q0 -59 -41 -87.5t-106 -28.5q-66 0 -107 28.5t-41 87.5zM909 1634q0 59 41 89t106 30q66 0 107 -29.5t41 -89.5 q0 -59 -41 -87.5t-107 -28.5t-106.5 28.5t-40.5 87.5z" />
<glyph unicode="&#x237;" horiz-adv-x="499" d="M252 1024h254l-227 -1067q-39 -184 -131.5 -281.5t-249.5 -97.5q-63 0 -127 14l49 218q51 -4 88 9t62.5 41.5t43 72.5t29.5 100z" />
<glyph unicode="&#x2c6;" horiz-adv-x="882" d="M614 1126l320 373h168l137 -373h-197l-49 136l-8 100l-55 -100l-117 -136h-199z" />
<glyph unicode="&#x2d9;" horiz-adv-x="544" d="M641 1315q0 68 44 104.5t112 36.5q66 0 111.5 -37t45.5 -104q0 -66 -46 -103.5t-111 -37.5q-68 0 -112 37.5t-44 103.5z" />
<glyph unicode="&#x2da;" horiz-adv-x="821" d="M782 1325q0 86 58.5 141.5t169.5 55.5q104 0 165.5 -50.5t61.5 -146.5q0 -80 -60.5 -136t-166.5 -56q-109 0 -168.5 52t-59.5 140zM930 1325q0 -33 23.5 -50.5t56.5 -17.5q35 0 57.5 16.5t22.5 51.5t-24 52.5t-56 17.5q-33 0 -56.5 -16.5t-23.5 -53.5z" />
<glyph unicode="&#x2dc;" horiz-adv-x="714" d="M627 1348q72 76 126 104.5t99 28.5q37 0 68.5 -14.5t63.5 -31t63.5 -30.5t68.5 -14q29 0 62.5 12t74.5 43l9 -143q-66 -66 -117 -91.5t-94 -25.5q-37 0 -70 13t-65.5 29.5t-65.5 30t-70 13.5q-31 0 -67.5 -12.5t-77.5 -45.5z" />
<glyph unicode="&#x2000;" horiz-adv-x="890" />
<glyph unicode="&#x2001;" horiz-adv-x="1781" />
<glyph unicode="&#x2002;" horiz-adv-x="890" />
<glyph unicode="&#x2003;" horiz-adv-x="1781" />
<glyph unicode="&#x2004;" horiz-adv-x="593" />
<glyph unicode="&#x2005;" horiz-adv-x="444" />
<glyph unicode="&#x2006;" horiz-adv-x="296" />
<glyph unicode="&#x2007;" horiz-adv-x="296" />
<glyph unicode="&#x2008;" horiz-adv-x="221" />
<glyph unicode="&#x2009;" horiz-adv-x="356" />
<glyph unicode="&#x200a;" horiz-adv-x="98" />
<glyph unicode="&#x2010;" horiz-adv-x="702" d="M115 483l51 213h489l-51 -213h-489z" />
<glyph unicode="&#x2011;" horiz-adv-x="702" d="M115 483l51 213h489l-51 -213h-489z" />
<glyph unicode="&#x2012;" horiz-adv-x="702" d="M115 483l51 213h489l-51 -213h-489z" />
<glyph unicode="&#x2013;" horiz-adv-x="1284" d="M215 483l51 213h858l-51 -213h-858z" />
<glyph unicode="&#x2014;" horiz-adv-x="1595" d="M215 483l51 213h1170l-52 -213h-1169z" />
<glyph unicode="&#x2018;" horiz-adv-x="440" d="M203 1282q0 82 34.5 145.5t83 107.5t96.5 69.5t77 31.5l38 -110q-41 -16 -76.5 -52t-47.5 -77q35 0 57 -31t22 -74q0 -80 -47 -118.5t-102 -38.5q-35 0 -60.5 13t-42 34.5t-24.5 47t-8 52.5z" />
<glyph unicode="&#x2019;" horiz-adv-x="442" d="M203 1061q43 18 78.5 49t50.5 78q-37 4 -61.5 33.5t-22.5 83.5q0 37 15.5 64.5t38 46t49 27.5t50.5 9q72 0 103 -37t31 -100q0 -84 -32 -147.5t-78 -108.5t-96 -71.5t-87 -39.5z" />
<glyph unicode="&#x201a;" horiz-adv-x="462" d="M17 -131q43 18 78.5 49t50.5 78q-37 4 -61.5 33.5t-22.5 83.5q0 37 15.5 64.5t38 46t49 27.5t50.5 9q72 0 103 -37t31 -100q0 -84 -32 -147.5t-78 -108.5t-96 -71.5t-87 -39.5z" />
<glyph unicode="&#x201c;" horiz-adv-x="776" d="M539 1282q0 82 34.5 145.5t83 107.5t96.5 69.5t77 31.5l38 -110q-41 -16 -76.5 -52t-47.5 -77q35 0 57 -31t22 -74q0 -80 -47 -118.5t-102 -38.5q-35 0 -60.5 13t-42 34.5t-24.5 47t-8 52.5zM203 1282q0 82 34.5 145.5t83 107.5t96.5 69.5t77 31.5l38 -110 q-41 -16 -76.5 -52t-47.5 -77q35 0 57 -31t22 -74q0 -80 -47 -118.5t-102 -38.5q-35 0 -60.5 13t-42 34.5t-24.5 47t-8 52.5z" />
<glyph unicode="&#x201d;" horiz-adv-x="776" d="M537 1061q43 18 78.5 49t50.5 78q-37 4 -61.5 33.5t-22.5 83.5q0 37 15.5 64.5t38 46t49 27.5t50.5 9q72 0 103 -37t31 -100q0 -84 -32 -147.5t-78 -108.5t-96 -71.5t-87 -39.5zM203 1061q43 18 78.5 49t50.5 78q-37 4 -61.5 33.5t-22.5 83.5q0 37 15.5 64.5t38 46 t49 27.5t50.5 9q72 0 103 -37t31 -100q0 -84 -32 -147.5t-78 -108.5t-96 -71.5t-87 -39.5z" />
<glyph unicode="&#x201e;" horiz-adv-x="796" d="M348 -131q43 18 78.5 49t50.5 78q-37 4 -61.5 33.5t-22.5 83.5q0 37 15.5 64.5t38 46t49 27.5t50.5 9q72 0 103 -37t31 -100q0 -84 -32 -147.5t-78 -108.5t-96 -71.5t-87 -39.5zM17 -131q43 18 78.5 49t50.5 78q-37 4 -61.5 33.5t-22.5 83.5q0 37 15.5 64.5t38 46 t49 27.5t50.5 9q72 0 103 -37t31 -100q0 -84 -32 -147.5t-78 -108.5t-96 -71.5t-87 -39.5z" />
<glyph unicode="&#x2022;" horiz-adv-x="925" d="M201 637q0 70 24.5 127t66.5 98t98 64.5t122 23.5t123 -21.5t99 -61.5t66.5 -98t24.5 -132t-24.5 -131t-66.5 -97t-99 -61.5t-123 -21.5t-122 21.5t-98 61.5t-66.5 97t-24.5 131z" />
<glyph unicode="&#x2026;" horiz-adv-x="1574" d="M37 135q0 72 45 114t119 42q76 0 121 -42t45 -114t-45.5 -115t-120.5 -43q-74 0 -119 43t-45 115zM565 135q0 72 45 114t119 42q76 0 121 -42t45 -114t-45 -115t-121 -43q-74 0 -119 43t-45 115zM1096 135q0 72 45 114t119 42q76 0 120.5 -42t44.5 -114t-45 -115 t-120 -43q-74 0 -119 43t-45 115z" />
<glyph unicode="&#x202f;" horiz-adv-x="356" />
<glyph unicode="&#x2039;" horiz-adv-x="614" d="M82 530l410 471l122 -131l-217 -258l-112 -80l73 -75l123 -252l-172 -127z" />
<glyph unicode="&#x203a;" horiz-adv-x="600" d="M63 203l222 260l112 84l-71 80l-127 254l176 120l225 -452l-410 -471z" />
<glyph unicode="&#x2044;" horiz-adv-x="376" d="M600 1464l174 -102l-880 -1391l-177 109z" />
<glyph unicode="&#x205f;" horiz-adv-x="444" />
<glyph unicode="&#x2081;" horiz-adv-x="823" d="M78 0h190l74 336l39 94l-74 -65l-129 -76l-69 149l360 232h166l-143 -670h170l-44 -205h-583z" />
<glyph unicode="&#x2082;" horiz-adv-x="823" d="M705 465q0 -123 -78 -225.5t-209 -200.5l-101 -51v-8l117 22h207l-45 -207h-608l30 146l137 90t148 112.5t118 122t48 117.5q0 35 -19.5 55.5t-72.5 20.5t-104.5 -17.5t-90.5 -40.5l-28 187q76 43 156.5 62.5t150.5 19.5q117 0 180.5 -53.5t63.5 -151.5z" />
<glyph unicode="&#x2083;" horiz-adv-x="823" d="M256 -25q102 0 143 38t41 85q0 41 -29.5 61.5t-127.5 20.5h-84l16 78l176 166l92 49l-114 -12h-222l43 194h551l-28 -127l-209 -190l-72 -35v-10l57 6q72 -2 123.5 -51t49.5 -131q0 -86 -32 -149.5t-87.5 -104.5t-131 -61.5t-163.5 -20.5q-74 0 -138.5 13t-105.5 36 l82 184q82 -39 170 -39z" />
<glyph unicode="&#x2084;" horiz-adv-x="823" d="M707 -45h-148l-35 -160h-196l34 160h-401l29 137l542 580h179l-113 -535h147zM438 313l37 109h-10l-66 -100l-123 -136l-83 -65l108 16h102z" />
<glyph unicode="&#x20ac;" d="M-12 473l104 191h131q8 61 21 118h-193l107 191h149q70 156 170 262q115 119 252 173t260 54q100 0 174 -19.5t123 -47.5l-108 -185q-37 18 -91.5 28.5t-130.5 10.5q-80 0 -169 -43t-164 -131q-39 -45 -70 -102h520l-94 -191h-500q-14 -55 -20 -118h454l-94 -191h-364 q4 -45 12 -84q14 -63 50 -109.5t94.5 -71t148.5 -24.5q76 0 137 18.5t115 47.5l35 -187q-70 -45 -170.5 -68.5t-198.5 -23.5q-121 0 -208 38t-144.5 105.5t-83.5 159.5q-27 90 -27 199h-227z" />
<glyph unicode="&#x2122;" horiz-adv-x="1951" d="M188 1208v226h750v-226h-242v-512h-266v512h-242zM1008 696v738h266l186 -308l49 -129h2l52 133l172 304h264v-738h-232v295l35 211h-12l-74 -174l-139 -240h-160l-139 234l-80 180h-10l47 -209v-297h-227z" />
<glyph unicode="&#x2212;" horiz-adv-x="1034" d="M119 807h905v-229h-905v229z" />
<glyph unicode="&#xe000;" horiz-adv-x="1025" d="M0 1025h1025v-1025h-1025v1025z" />
<glyph unicode="&#xf408;" horiz-adv-x="882" d="M954 1782h179l206 -191l-16 -80h-180l-92 84l-27 70l-55 -68l-138 -86h-192l18 82z" />
<glyph unicode="&#xf40d;" horiz-adv-x="714" d="M528 1638q78 72 141.5 98.5t118.5 26.5q43 0 83 -11t78 -24.5t74 -24.5t73 -11q31 0 61.5 10t63.5 39l20 -137q-68 -55 -123 -76t-104 -21q-43 0 -81 11.5l-75 23.5l-73 24q-36 11 -74 11q-37 0 -77 -14.5t-87 -53.5z" />
<glyph unicode="&#xf662;" horiz-adv-x="823" d="M498 1114l41 94l-72 -65l-129 -74l-76 154l365 225h168l-187 -875h-225z" />
<glyph unicode="&#xf6c9;" horiz-adv-x="487" d="M889 1782h321l-12 -62l-352 -180h-213z" />
<glyph unicode="&#xf6cb;" horiz-adv-x="495" d="M391 1634q0 59 41 89t107 30t106.5 -29.5t40.5 -89.5q0 -59 -41 -87.5t-106 -28.5q-66 0 -107 28.5t-41 87.5zM809 1634q0 59 41 89t106 30q66 0 107 -29.5t41 -89.5q0 -59 -41 -87.5t-107 -28.5t-106.5 28.5t-40.5 87.5z" />
<glyph unicode="&#xf6ce;" horiz-adv-x="487" d="M1012 1540h-185l-268 180l12 62h287z" />
<glyph unicode="&#xfb01;" horiz-adv-x="1077" d="M-264 -369l69 187q35 -14 70 -18.5t88 -4.5q66 0 101.5 51.5t52.5 153.5l123 813h-136l43 211h134l12 57q41 195 155.5 284t294.5 89q135 0 234.5 -22.5t155.5 -59.5l-103 -190q-45 29 -115.5 46t-158.5 17q-57 0 -95 -15.5t-63 -45t-40 -70.5t-26 -90h519l-154 -1024 h-252l123 813h-276l-123 -813q-16 -104 -42 -184t-68 -133.5t-104.5 -81t-152.5 -27.5q-74 0 -144.5 11t-121.5 46z" />
<glyph unicode="&#xfb02;" horiz-adv-x="1144" d="M-264 -369l69 187q35 -14 70 -18.5t88 -4.5q66 0 101.5 51.5t52.5 153.5l125 813h-136l44 211h133l12 57q41 193 149.5 286t323.5 93q45 0 102.5 -4t112.5 -9t103.5 -11t74.5 -13l-184 -1091l-7 -40q-3 -17 -3 -34q0 -72 55 -72q23 0 46.5 4.5t57.5 16.5l-8 -182 q-18 -8 -44.5 -17.5t-59.5 -16.5t-69 -11.5t-68 -4.5q-90 0 -137.5 35t-47.5 117q0 39 8 78l172 1028q-23 6 -65.5 11t-83.5 5q-90 0 -129 -62.5t-59 -162.5h147l-41 -211h-147l-125 -813q-18 -104 -44 -184t-67 -133.5t-103.5 -81t-152.5 -27.5q-74 0 -144.5 11t-121.5 46z " />
<glyph unicode="&#xfb03;" horiz-adv-x="1728" d="M1476 1024h252l-217 -1024h-252zM1515 1315q0 68 44 104.5t112 36.5q66 0 111.5 -37t45.5 -104q0 -66 -46 -103.5t-111 -37.5q-68 0 -112 37.5t-44 103.5zM338 -369l69 187q35 -14 70 -18.5t88 -4.5q66 0 101.5 52.5t54.5 168.5l129 797h-144l46 211h131l26 137 q14 76 37 132.5t60.5 94t92 56t134.5 18.5q33 0 75 -3t82.5 -10t79.5 -17.5t70 -24.5l-59 -186q-47 18 -96.5 24t-96.5 6q-66 0 -95.5 -38.5t-41.5 -120.5l-12 -68h204l-41 -211h-196l-152 -883q-12 -76 -34.5 -140t-62.5 -112.5t-101.5 -76t-151.5 -27.5q-74 0 -144.5 11 t-121.5 46zM-264 -369l69 187q35 -14 70 -18.5t88 -4.5q66 0 101.5 52.5t54.5 168.5l129 797h-144l46 211h131l26 137q14 76 37 132.5t60.5 94t92 56t134.5 18.5q33 0 75 -3t82.5 -10t79.5 -17.5t70 -24.5l-59 -186q-47 18 -96.5 24t-96.5 6q-66 0 -95.5 -38.5t-41.5 -120.5 l-12 -68h204l-41 -211h-196l-152 -883q-12 -76 -34.5 -140t-62.5 -112.5t-101.5 -76t-151.5 -27.5q-74 0 -144.5 11t-121.5 46z" />
<glyph unicode="&#xfb04;" horiz-adv-x="1761" d="M1272 135q0 47 12 109l252 1190h252l-240 -1131q-6 -29 -6 -50q0 -23 7 -38q13 -29 44 -29q57 0 109 23l-6 -182q-37 -23 -107 -37.5t-137 -14.5q-88 0 -134 34t-46 126zM338 -369l69 187q35 -14 70 -18.5t88 -4.5q66 0 101.5 52.5t54.5 168.5l129 797h-144l46 211h131 l26 137q14 76 37 132.5t60.5 94t92 56t134.5 18.5q33 0 75 -3t82.5 -10t79.5 -17.5t70 -24.5l-59 -186q-47 18 -96.5 24t-96.5 6q-66 0 -95.5 -38.5t-41.5 -120.5l-12 -68h204l-41 -211h-196l-152 -883q-12 -76 -34.5 -140t-62.5 -112.5t-101.5 -76t-151.5 -27.5 q-74 0 -144.5 11t-121.5 46zM-264 -369l69 187q35 -14 70 -18.5t88 -4.5q66 0 101.5 52.5t54.5 168.5l129 797h-144l46 211h131l26 137q14 76 37 132.5t60.5 94t92 56t134.5 18.5q33 0 75 -3t82.5 -10t79.5 -17.5t70 -24.5l-59 -186q-47 18 -96.5 24t-96.5 6 q-66 0 -95.5 -38.5t-41.5 -120.5l-12 -68h204l-41 -211h-196l-152 -883q-12 -76 -34.5 -140t-62.5 -112.5t-101.5 -76t-151.5 -27.5q-74 0 -144.5 11t-121.5 46z" />
<glyph horiz-adv-x="376" d="M700 1462l150 -135l-1180 -1356l-149 142z" />
</font>
</defs>
</svg>
